<?xml version="1.0" standalone="no"?>
<!DOCTYPE svg PUBLIC "-//W3C//DTD SVG 1.1//EN" "http://www.w3.org/Graphics/SVG/1.1/DTD/svg11.dtd" >
<svg xmlns="http://www.w3.org/2000/svg">
<metadata></metadata>
<defs>
<font id="ec_square_sans_proregular" horiz-adv-x="1138" >
<font-face units-per-em="2048" ascent="1536" descent="-512" />
<missing-glyph horiz-adv-x="552" />
<glyph unicode="&#xfb01;" horiz-adv-x="1032" d="M68 903v58q0 37 34 36h101v125q0 162 85.5 247t278.5 85q31 0 68 -2t76 -7t77.5 -14.5t71.5 -23.5q27 -10 21 -43l-9 -47q-6 -29 -53 -23q-66 8 -136.5 14.5t-117.5 6.5q-104 0 -156.5 -45t-52.5 -152v-121h521q33 0 32 -34v-928q0 -35 -32 -35h-84q-37 0 -37 35v833 h-400v-833q0 -35 -32 -35h-84q-37 0 -37 35v833h-101q-35 0 -34 35z" />
<glyph unicode="&#xfb02;" horiz-adv-x="997" d="M47 903v58q0 37 35 36h100v125q0 162 86 247t279 85q47 0 108.5 -5t120.5 -22l76 15q37 6 37 -35v-1372q0 -35 -33 -35h-84q-37 0 -37 35v1265q-53 6 -104 10.5t-86 4.5q-104 0 -156.5 -45t-52.5 -152v-121h246q35 0 34 -36v-58q0 -35 -34 -35h-246v-833q0 -35 -33 -35 h-84q-37 0 -37 35v833h-100q-35 0 -35 35z" />
<glyph unicode="&#xfb03;" horiz-adv-x="1585" d="M68 903v58q0 37 34 36h101v125q0 162 86 247t278 85q25 0 60 -2t72.5 -6t76.5 -12.5t74 -20.5q90 78 270 78q31 0 68 -2t76 -7t77.5 -14.5t71.5 -23.5q27 -10 21 -43l-9 -47q-6 -29 -53 -23q-66 8 -136.5 14.5t-117.5 6.5q-104 0 -156.5 -45t-52.5 -152v-158h521 q33 0 32 -34v-928q0 -35 -32 -35h-84q-37 0 -37 35v833h-400v-833q0 -35 -32 -35h-84q-37 0 -37 35v833h-400v-833q0 -35 -32 -35h-84q-37 0 -37 35v833h-101q-35 0 -34 35zM356 997h400v162q0 78 18 139q-68 10 -117 13.5t-92 3.5q-104 0 -156.5 -45t-52.5 -152v-121z" />
<glyph unicode="&#xfb04;" horiz-adv-x="1585" d="M68 903v58q0 37 34 36h101v125q0 162 86 247t278 85q25 0 60 -2t72.5 -6t76.5 -12.5t74 -20.5q90 78 270 78q47 0 108.5 -5t121.5 -22l75 15q37 6 37 -35v-1409q0 -35 -32 -35h-84q-37 0 -37 35v1302q-53 6 -104.5 10.5t-86.5 4.5q-104 0 -156.5 -45t-52.5 -152v-158h246 q35 0 35 -36v-58q0 -35 -35 -35h-246v-833q0 -35 -32 -35h-84q-37 0 -37 35v833h-400v-833q0 -35 -32 -35h-84q-37 0 -37 35v833h-101q-35 0 -34 35zM356 997h400v162q0 78 18 139q-68 10 -117 13.5t-92 3.5q-104 0 -156.5 -45t-52.5 -152v-121z" />
<glyph horiz-adv-x="0" />
<glyph horiz-adv-x="682" />
<glyph horiz-adv-x="0" />
<glyph horiz-adv-x="0" />
<glyph unicode="&#xd;" horiz-adv-x="1720" d="M171 656q-1 3 7 12l426 430q4 4 10.5 7t16.5 -5l67 -66q10 -10 7 -17t-9 -13l-264 -263q-4 -4 -3 -11t7 -7h981q12 0 25.5 5t13.5 32v641q0 16 14 16h105q14 0 14 -16v-764q0 -45 -49 -45l-1104 2q-8 0 -10 -6t4 -10l268 -267q14 -14 -2 -30l-61 -62q-10 -10 -17.5 -8 t-9.5 4l-430 432q-6 6 -7 9z" />
<glyph unicode=" "  horiz-adv-x="552" />
<glyph unicode="&#x09;" horiz-adv-x="552" />
<glyph unicode="&#xa0;" horiz-adv-x="552" />
<glyph unicode="!" horiz-adv-x="458" d="M133 76q0 41 17.5 66.5t74.5 25.5q59 0 76.5 -25.5t17.5 -66.5t-17 -70t-77 -29q-61 0 -76.5 29t-15.5 70zM156 1323q0 35 32 35h91q29 0 28 -35l-24 -950q-2 -33 -25 -33h-53q-29 0 -29 33z" />
<glyph unicode="&#x22;" horiz-adv-x="579" d="M121 1335q0 23 24 23h86q16 0 19.5 -8.5t3.5 -14.5l-21 -346q0 -18 -22 -18h-53q-16 0 -17 18zM326 1335q0 23 24 23h88q14 0 17.5 -8.5t3.5 -14.5l-19 -346q-2 -10 -6 -14t-16 -4h-53q-18 0 -19 18z" />
<glyph unicode="#" d="M37 506l16 59q6 25 33 25h248l57 239h-248q-14 0 -21 2.5t-3 18.5l16 57q4 14 10.5 19.5t22.5 5.5h250l94 397q4 14 9 20.5t22 6.5h65q27 0 21 -31l-94 -393h223l96 397q6 27 29 27h67q10 0 18.5 -6.5t4.5 -20.5l-99 -397h259q33 0 26 -27l-14 -53q-6 -23 -29 -23h-266 l-59 -239h260q33 0 26 -27l-14 -55q-6 -20 -29 -21h-268l-113 -462q-6 -25 -22 -25h-70q-29 0 -22 31l110 454h-223l-113 -460q-6 -25 -22 -25h-72q-27 0 -20 31l110 454h-248q-31 0 -24 21zM451 590h223l59 239h-225z" />
<glyph unicode="$" d="M112.5 85q-3.5 11 0.5 26l12 55q6 25 37 18q76 -10 175 -21t181 -16v488q-84 18 -154.5 41.5t-122 62.5t-78 99.5t-24.5 152.5q4 166 101.5 259t277.5 104v172q0 12 19 12h75q16 0 17 -16v-168q78 -4 163 -17.5t144 -36.5q23 -8 27 -18t0 -25l-15 -55q-4 -10 -11 -18 t-28 -4q-59 8 -125.5 15t-146.5 11h-8v-446q82 -16 151.5 -40t120.5 -67t78 -109.5t25 -170.5q-4 -96 -33 -164t-79 -112t-117.5 -67.5t-145.5 -29.5v-170q0 -14 -17 -14h-75q-18 0 -19 12v172q-53 2 -108.5 8t-105.5 14.5t-92 19.5t-73 24q-23 8 -26.5 19zM299 993 q-2 -53 9 -87t38 -57.5t68 -37.5t100 -27l4 -2v424q-123 -10 -169 -65.5t-50 -147.5zM629 150q209 24 215 202q2 61 -7.5 104.5t-34 72t-66.5 48t-107 35.5v-462z" />
<glyph unicode="%" horiz-adv-x="1679" d="M51 940q0 49 7.5 122t38 140.5t94 115.5t178.5 48t180 -39t99 -100.5t43 -137t9 -149.5q0 -63 -7 -142t-39.5 -147.5t-99.5 -116t-185 -47.5q-117 0 -180.5 44t-94.5 111t-37 146.5t-6 151.5zM184 926q0 -72 5.5 -130.5t24.5 -100.5t56 -65.5t99 -23.5q63 0 103 24.5 t60.5 67.5t27.5 101.5t7 126.5q0 76 -6 136t-26.5 102t-59.5 64.5t-106 22.5q-61 0 -98.5 -26.5t-55.5 -70.5t-24.5 -103.5t-6.5 -124.5zM508 -16l565 1423q6 14 12.5 20.5t20.5 6.5h65q27 0 17 -31l-563 -1426q-10 -25 -31 -24h-66q-31 0 -20 31zM979 440q0 49 7 122 t38 140.5t94.5 115.5t177.5 48q115 0 180.5 -39t99.5 -100t43 -137t9 -150q0 -63 -7 -142t-40 -147.5t-99.5 -115.5t-185.5 -47q-117 0 -180 44t-94 110.5t-37 146.5t-6 151zM1112 426q0 -72 5 -130t24.5 -100t56.5 -66t98 -24q63 0 103.5 25t61 68t27.5 101t7 126 q0 76 -6 136.5t-26.5 102.5t-59.5 64.5t-107 22.5q-61 0 -98 -27t-55.5 -71t-24.5 -103t-6 -125z" />
<glyph unicode="&#x26;" horiz-adv-x="1415" d="M76 354q0 141 89 256t245 203q-49 72 -77 144.5t-28 123.5q0 61 20.5 115.5t58.5 94.5t92 63.5t124 23.5q63 0 117.5 -19.5t92.5 -55t59.5 -84t21.5 -103.5q0 -115 -75 -194.5t-202 -155.5q78 -119 173.5 -236.5t195.5 -218.5q92 92 157.5 216t86.5 278q4 16 10 21t25 5 l55 -2q20 -2 25.5 -13t5.5 -28q-6 -86 -33 -171t-66 -160.5t-83 -138t-87 -103.5q63 -57 136 -111.5t143 -93.5q12 -8 15 -14t-5 -23l-33 -59q-8 -10 -19 -15t-28 3q-31 14 -71.5 38.5t-83.5 55.5t-86 64.5t-78 66.5q-104 -72 -221 -111t-228 -39q-90 0 -171 21.5t-141.5 68 t-96 117t-35.5 170.5zM219 358q0 -70 22.5 -117.5t62.5 -77.5t93.5 -44.5t112.5 -14.5q86 0 177 30t183 89q-51 49 -106 111.5t-107.5 127t-97.5 128t-78 112.5q-119 -66 -190.5 -151.5t-71.5 -192.5zM457 1092q0 -47 22.5 -99.5t63.5 -111.5q86 45 144 97t58 130 q0 61 -43 101t-104 40q-37 0 -64.5 -15t-44 -39t-24.5 -51.5t-8 -51.5z" />
<glyph unicode="'" horiz-adv-x="419" d="M137 1335q0 23 25 23h86q16 0 19 -8.5t3 -14.5l-20 -346q0 -18 -23 -18h-53q-16 0 -16 18z" />
<glyph unicode="(" horiz-adv-x="591" d="M127 637q0 143 27.5 264t67.5 219.5t87 176t88 135.5q14 23 37 8l39 -23q12 -8 16.5 -15t-4.5 -18q-37 -55 -72.5 -127.5t-64.5 -165t-47 -206t-18 -248.5q0 -147 18 -272t47 -225.5t64.5 -177.5t72.5 -130q8 -10 4 -17.5t-16 -15.5l-37 -20q-25 -18 -39 4 q-41 57 -89 137t-88 184.5t-66.5 236.5t-26.5 296z" />
<glyph unicode=")" horiz-adv-x="595" d="M129 -185.5q-4 7.5 4 17.5q37 53 73 130t64.5 177.5t47 225t18.5 272.5q0 135 -18.5 248.5t-47 206t-64.5 165t-73 127.5q-10 18 12 33l39 23q23 14 39 -8q39 -57 86 -135t87 -176.5t68 -219.5t28 -264q0 -164 -27 -296t-67 -236.5t-87 -184.5t-88 -137q-16 -23 -41 -4 l-37 20q-12 8 -16 15.5z" />
<glyph unicode="*" horiz-adv-x="702" d="M96.5 1184.5q-4.5 7.5 5.5 21.5l19 29q8 14 15 16t22 -6l151 -78l6 170q0 12 5.5 16.5t21.5 4.5h45q16 0 20.5 -4t4.5 -19l6 -166l151 76q10 6 16.5 5t16.5 -15l21 -33q10 -14 -5 -24l-151 -97l149 -98q10 -6 12.5 -12t-7.5 -21l-19 -30q-12 -18 -33 -9l-151 84l-6 -170 q0 -12 -4.5 -16t-20.5 -4h-47q-14 0 -17.5 3t-5.5 17l-8 172l-155 -79q-20 -14 -31 8l-21 32q-10 18 9 29l145 96l-147 88q-8 6 -12.5 13.5z" />
<glyph unicode="+" d="M170 629v71q0 16 6 21.5t21 5.5h307v297q0 14 5 21.5t21 7.5h84q25 0 25 -29v-297h299q16 0 23.5 -5t7.5 -22v-71q0 -25 -31 -25h-299v-313q0 -29 -25 -29h-84q-16 0 -21 7t-5 22v313h-307q-27 0 -27 25z" />
<glyph unicode="," horiz-adv-x="399" d="M79 -235.5q3 8.5 11 16.5q37 33 52.5 69.5t15.5 75.5q0 37 -14.5 75t-37.5 65q-18 25 9 43l82 61q14 10 27.5 9t23.5 -11q31 -29 45 -62.5t14 -62.5q0 -123 -50 -198.5t-112 -114.5q-6 -4 -16 -8.5t-20 6.5l-25 22q-8 6 -5 14.5z" />
<glyph unicode="-" horiz-adv-x="757" d="M72 629v63q0 16 7 21.5t21 5.5h557q14 0 21.5 -5t7.5 -22v-63q0 -25 -29 -25h-557q-29 0 -28 25z" />
<glyph unicode="." horiz-adv-x="380" d="M94 80q0 41 17.5 67.5t74.5 26.5q59 0 77 -26.5t18 -67.5t-17.5 -69.5t-77.5 -28.5q-61 0 -76.5 28.5t-15.5 69.5z" />
<glyph unicode="/" horiz-adv-x="524" d="M23 -102l356 1495q6 27 33 26h67q20 0 15 -30l-355 -1495q-6 -25 -28 -25h-68q-27 0 -20 29z" />
<glyph unicode="0" d="M94 698q0 51 4 122t18.5 145.5t45.5 148.5t83 131.5t132 93t194 35.5q170 0 268.5 -61.5t148.5 -158.5t63.5 -218t13.5 -238q0 -68 -4 -146.5t-19.5 -158.5t-47 -153.5t-86 -131t-137.5 -92t-200 -34.5q-115 0 -195.5 31.5t-133 87t-82 127t-45 151.5t-18.5 162t-3 157z M256 678q0 -121 10 -222.5t43 -174t95.5 -112.5t166.5 -40q106 0 172 42t101 115.5t47 174t12 217.5q0 129 -10 231.5t-45 174t-100.5 109.5t-176.5 38q-104 0 -165.5 -44t-95.5 -120t-44 -176t-10 -213z" />
<glyph unicode="1" d="M233 27v90q0 29 31 28h246v1022h-229q-16 0 -22.5 4.5t-6.5 20.5v49q0 10 3 20.5t19 14.5l193 65q39 16 80 17h86q27 0 31 -9.5t4 -25.5v-1178h268q31 0 31 -28v-90q0 -27 -31 -27h-672q-31 0 -31 27z" />
<glyph unicode="2" d="M102 29v94q0 33 23 55q74 72 139 135q55 53 109.5 106.5t81.5 80.5q31 29 75.5 72.5t128.5 129.5q68 68 110 134.5t42 152.5q0 61 -9 105.5t-39 73t-88.5 42t-156.5 13.5q-92 0 -184 -9.5t-160 -19.5q-20 -4 -27.5 4t-11.5 19l-12 57q-4 14 0 24.5t27 20.5q41 16 92 26.5 t102 16.5t97 8t77 2q131 0 219 -24.5t140.5 -70.5t74 -111.5t21.5 -149.5q0 -70 -10.5 -122t-33 -98t-58 -90t-85.5 -96q-57 -59 -106 -108t-103.5 -100.5t-118 -112t-149.5 -142.5l4 -2h656q31 0 30 -28v-90q0 -27 -28 -27h-840q-29 0 -29 29z" />
<glyph unicode="3" d="M97.5 57.5q-3.5 10.5 0.5 26.5l11 53q4 10 11 19.5t30 5.5q74 -10 163.5 -20.5t184.5 -10.5q68 0 130 11.5t111 47t78 102t29 177.5q0 92 -52.5 133t-154.5 57l-246 41q-39 6 -39 43v62q0 20 5.5 31.5t15.5 21.5l375 350v2h-605q-31 0 -30 31v88q0 27 28 27h777 q18 0 27 -10.5t9 -20.5v-82q-2 -29 -10 -46t-31 -40l-348 -326v-2l164 -28q129 -23 205 -96.5t76 -223.5q0 -147 -37 -243.5t-105.5 -152.5t-166 -78.5t-216.5 -22.5q-29 0 -75.5 3t-99 9t-103.5 16.5t-88 26.5q-20 8 -23.5 18.5z" />
<glyph unicode="4" d="M37 395v82q0 31 20 58l676 794q12 16 23.5 21.5t34.5 5.5h83q27 0 27 -25v-817h164q29 0 29 -29v-90q0 -27 -29 -26h-164v-338q0 -31 -31 -31h-98q-29 0 -29 29l2 340h-677q-31 0 -31 26zM238 514h507v606l-4 2l-501 -604z" />
<glyph unicode="5" d="M112 57.5q-3 10.5 1 26.5l10 53q4 10 11 19.5t30 5.5q72 -10 162 -20.5t184 -10.5q68 0 128 12.5t105 48t72 102t27 175.5q0 92 -55.5 133t-151.5 57l-449 74q-53 10 -45 66l82 528q4 18 11.5 23.5t25.5 5.5h655q27 0 27 -25v-90q0 -29 -31 -29h-555l-53 -346l418 -63 q129 -20 208 -96t79 -226q0 -147 -36 -242.5t-102.5 -152.5t-161 -79.5t-208.5 -22.5q-31 0 -77 3t-98.5 9t-102.5 16.5t-87 26.5q-20 8 -23 18.5z" />
<glyph unicode="6" d="M92 629q0 86 6 175t23.5 172t52.5 154.5t93.5 126t142.5 85t202 30.5q27 0 69 -2t90 -8t96 -16.5t89 -26.5q23 -10 27 -20.5t0 -24.5l-12 -57q-4 -10 -11.5 -18.5t-27.5 -4.5q-68 10 -150 19.5t-174 9.5q-104 0 -170.5 -35t-104.5 -94.5t-54.5 -141.5t-20.5 -174 q80 8 138.5 14.5t106.5 9.5t89 5t88 2q193 0 285 -102.5t92 -325.5q0 -111 -39 -186.5t-105.5 -122.5t-154.5 -68.5t-189 -21.5q-176 0 -273 47t-142 133t-53.5 204.5t-8.5 262.5zM254 521.5q0 -54.5 4 -105.5t13.5 -95.5t27.5 -76.5q29 -53 92.5 -86t186.5 -33q55 0 110 9 t101.5 37t75 77t28.5 129q0 70 -10.5 122t-38 87t-74.5 53t-119 18q-55 0 -156.5 -6t-240.5 -22v-107.5z" />
<glyph unicode="7" d="M84 1239v88q0 31 31 31h866q18 0 28.5 -11.5t10.5 -21.5v-74q0 -29 -7 -52t-18 -42l-585 -1161q-12 -25 -39 -14l-105 28q-31 12 -14 41l592 1161h-731q-29 0 -29 27z" />
<glyph unicode="8" d="M72 360q0 135 57 226.5t174 132.5v4q-84 31 -136 102.5t-52 163.5q0 195 117.5 291t332.5 96q203 0 324 -90t121 -285q0 -41 -13.5 -82.5t-39 -79.5t-62.5 -69t-82 -47v-4q111 -35 177.5 -125t66.5 -229q0 -178 -133 -280.5t-365 -102.5q-233 0 -360 90t-127 288z M240 377q0 -74 26.5 -122t70.5 -76.5t101.5 -41t120.5 -12.5q59 0 118.5 13.5t105.5 43t75 73.5t29 105q0 72 -26.5 121t-73 82t-108 54.5t-132.5 37.5q-53 -10 -107.5 -26.5t-99.5 -46t-72.5 -78.5t-27.5 -127zM283 1004q0 -53 21.5 -89t59 -61t89 -41t108.5 -29 q156 25 218.5 76.5t62.5 143.5q0 125 -78 178t-199 53q-158 0 -220 -59.5t-62 -171.5z" />
<glyph unicode="9" d="M88 973q0 109 38 184.5t104.5 123.5t154.5 69.5t188 21.5q172 0 269.5 -47t143.5 -133t56.5 -205t10.5 -262q0 -129 -15.5 -262t-69 -239.5t-156.5 -174t-282 -67.5q-27 0 -68.5 2t-88.5 8t-95.5 16t-89.5 27q-23 8 -26.5 19.5t0.5 25.5l12 55q4 12 11.5 19.5t25.5 5.5 q70 -10 151.5 -19.5t172.5 -9.5q104 0 170.5 35t104.5 94t54.5 140t20.5 173q-80 -8 -138.5 -14t-105.5 -9t-89 -4t-89 -1q-193 0 -284 102.5t-91 325.5zM252 975q0 -68 10 -121t37 -88t74 -53.5t119 -18.5q55 0 156.5 7.5t240.5 23.5q0 53 -2 109.5t-6 108.5t-12.5 95 t-22.5 70q-29 55 -92.5 88t-186.5 33q-55 0 -110.5 -10.5t-101.5 -38t-74.5 -76.5t-28.5 -129z" />
<glyph unicode=":" horiz-adv-x="399" d="M106 80q0 41 17.5 67.5t75.5 26.5q59 0 76.5 -26.5t17.5 -67.5t-17.5 -69.5t-76.5 -28.5q-61 0 -77 28.5t-16 69.5zM106 807q0 41 17.5 67.5t75.5 26.5q59 0 76.5 -25.5t17.5 -68.5q0 -41 -17.5 -69.5t-76.5 -28.5q-61 0 -77 29.5t-16 68.5z" />
<glyph unicode=";" horiz-adv-x="399" d="M69 -235.5q3 8.5 11 16.5q37 33 52 69.5t15 75.5q0 37 -14 75t-37 65q-18 25 8 43l82 61q14 10 27.5 9t24.5 -11q31 -29 45 -62.5t14 -62.5q0 -123 -50 -198.5t-112 -114.5q-6 -4 -16 -8.5t-21 6.5l-24 22q-8 6 -5 14.5zM106 807q0 41 17.5 67.5t75.5 26.5 q59 0 76.5 -25.5t17.5 -68.5q0 -41 -17.5 -69.5t-76.5 -28.5q-61 0 -77 29.5t-16 68.5z" />
<glyph unicode="&#x3c;" d="M172 633v63q0 16 5 22.5t16 12.5l747 402q25 14 25 -17v-100q0 -16 -7.5 -22.5t-17.5 -12.5l-573 -311v-6l575 -314q12 -6 18.5 -13t6.5 -24v-106q0 -29 -23 -14l-749 403q-10 4 -16.5 11t-6.5 26z" />
<glyph unicode="=" d="M170 465v74q0 27 29 26h741q29 0 29 -26v-74q0 -25 -29 -25h-741q-29 0 -29 25zM170 793v73q0 27 29 27h741q29 0 29 -27v-73q0 -25 -29 -25h-741q-12 0 -20.5 4t-8.5 21z" />
<glyph unicode="&#x3e;" d="M172 207v106q0 16 6 23.5t19 13.5l575 314v6l-573 311q-10 6 -17.5 12t-7.5 23v100q0 31 25 17l747 -402q10 -6 15.5 -12t5.5 -23v-63q0 -18 -6.5 -25.5t-16.5 -11.5l-749 -403q-23 -14 -23 14z" />
<glyph unicode="?" horiz-adv-x="720" d="M25 1294q-4 16 0 26.5t26 18.5q63 25 127 32t123 7q193 0 287 -81.5t94 -231.5q0 -53 -14.5 -93t-38 -72t-53 -56.5t-58.5 -44.5q-43 -33 -79 -63.5t-62.5 -66.5t-40.5 -80t-14 -100v-55t2 -59q0 -16 -4.5 -25.5t-20.5 -9.5h-78q-29 0 -35 31q-6 39 -7 76.5t-1 62.5 q0 70 20.5 125t55.5 102t80 87t94 81q45 35 74.5 65.5t29.5 84.5q0 96 -56 135t-181 39q-51 0 -110.5 -5t-110.5 -10q-20 -2 -27.5 6.5t-11.5 18.5zM174 80q0 41 18.5 67.5t75.5 26.5q59 0 76.5 -26.5t17.5 -67.5t-17 -69.5t-77 -28.5q-63 0 -78.5 28.5t-15.5 69.5z" />
<glyph unicode="@" horiz-adv-x="1665" d="M96 682q0 156 62.5 288t170 227t250 149.5t302.5 54.5q168 0 298 -52.5t220 -144.5t137 -218t47 -273q0 -104 -29.5 -182t-78 -131.5t-108.5 -80t-122 -26.5q-98 0 -153.5 32.5t-83.5 98.5q-61 -35 -131 -62.5t-154 -27.5q-109 0 -155 52t-46 151q0 129 66.5 189 t208.5 60h196v52q0 80 -35.5 109.5t-132.5 29.5q-39 0 -98 -3t-106 -9q-27 -4 -29 12l-8 41q-4 23 24 35q23 8 52.5 13t62.5 8t65.5 5t59.5 2q88 0 141 -18.5t80 -53t35 -82.5t8 -108v-305q0 -16 4 -36.5t18.5 -38t41 -30t73.5 -12.5q94 0 157.5 85t63.5 233 q0 129 -40.5 236.5t-117.5 184t-185.5 119.5t-245.5 43q-139 0 -262 -47t-214.5 -130t-144.5 -194.5t-53 -242.5q0 -137 48 -251t134 -194.5t205 -125.5t260 -45q31 0 99.5 8t144.5 30q10 4 17 3.5t11 -13.5l15 -43q8 -29 -17 -39q-70 -29 -139.5 -40t-140.5 -11 q-162 0 -299 52.5t-236.5 147.5t-156 227t-56.5 292zM641 543q0 -59 23.5 -82t85.5 -23q27 0 59.5 7.5t65 19.5t64.5 26.5t56 28.5v168h-211q-66 0 -104.5 -29.5t-38.5 -115.5z" />
<glyph unicode="A" horiz-adv-x="1122" d="M33 33l428 1292q8 31 39 31h114q20 0 27.5 -8.5t11.5 -22.5l428 -1296q1 -6 1 -11q0 -18 -17 -18h-125q-16 0 -23.5 6t-11.5 21l-100 335h-500l-106 -329q-6 -20 -16.5 -26.5t-26.5 -6.5h-107q-20 0 -20 16q0 7 4 17zM352 508h408l-103 342l-98 332h-6l-96 -326z" />
<glyph unicode="B" horiz-adv-x="1140" d="M147 35v1288q0 33 37 33h432q199 0 298.5 -96.5t99.5 -251.5q0 -33 -7.5 -74t-26.5 -82t-53 -78t-87 -61l2 -2q61 -18 102 -58.5t65.5 -87.5t35 -98t10.5 -94q0 -86 -30 -154.5t-81 -117t-117.5 -75t-142.5 -26.5h-494q-25 0 -34 8t-9 27zM305 145h328q76 0 125 19.5 t77.5 53.5t40 77t11.5 92q0 47 -14.5 92t-45 79t-79 54.5t-115.5 20.5h-328v-488zM305 776h322q45 0 85 17.5t69.5 46t47 68.5t17.5 87q0 94 -59.5 155.5t-190.5 61.5h-291v-436z" />
<glyph unicode="C" horiz-adv-x="1101" d="M133 664q0 135 19.5 263t75 226t157.5 158.5t268 60.5q31 0 76 -2t96.5 -8t102.5 -16.5t92 -26.5q23 -11 27 -21q2 -5 2 -11t-2 -13l-13 -57q-4 -10 -11 -18.5t-28 -4.5q-68 10 -159 19.5t-183 9.5q-119 0 -188.5 -45t-106 -122t-47 -178.5t-10.5 -213.5 q0 -102 12.5 -198.5t50 -170.5t107.5 -118t182 -44q94 0 180.5 9.5t159.5 19.5q23 4 30 -5.5t11 -19.5l10 -53q4 -16 1 -26.5t-23 -18.5q-37 -16 -88 -26.5t-103.5 -16.5t-99.5 -9t-78 -3q-162 0 -263 56t-158.5 150.5t-78 217t-20.5 256.5z" />
<glyph unicode="D" horiz-adv-x="1263" d="M156 35v1288q0 33 37 33h389q164 0 270 -52.5t167.5 -143.5t86 -214t24.5 -264t-23.5 -265t-84.5 -217.5t-167.5 -146.5t-272.5 -53h-383q-25 0 -34 8t-9 27zM315 147h252q70 0 139.5 17.5t127 72t93.5 157t36 272.5q0 172 -32 278.5t-85 165.5t-122 79.5t-142 20.5h-267 v-1063z" />
<glyph unicode="E" horiz-adv-x="1034" d="M152 33v1290q0 35 36 35h707q35 0 35 -33v-80q0 -35 -37 -35h-582v-432h523q35 0 34 -33v-79q0 -33 -34 -33h-523v-488h598q33 0 33 -34v-78q0 -20 -8 -26.5t-27 -6.5h-719q-37 0 -36 33z" />
<glyph unicode="F" horiz-adv-x="980" d="M158 35v1290q0 33 39 33h692q35 0 35 -33v-80q0 -35 -37 -35h-572v-432h506q35 0 35 -33v-79q0 -35 -37 -35h-502v-596q0 -35 -34 -35h-88q-37 0 -37 35z" />
<glyph unicode="G" horiz-adv-x="1236" d="M135 666q0 135 20.5 262t77 225t158.5 158.5t266 60.5q29 0 75 -2t96.5 -8t102.5 -16.5t93 -26.5q20 -8 25.5 -18.5t1.5 -26.5l-15 -57q-2 -10 -9 -18.5t-28 -4.5q-70 10 -160.5 19.5t-181.5 9.5q-117 0 -186.5 -45t-106 -122t-48 -178.5t-11.5 -213.5 q0 -104 14.5 -200.5t54.5 -170.5t110.5 -119t185.5 -45q27 0 61.5 2t71.5 6t69.5 10.5t57.5 14.5v418h-187q-37 0 -36 34v80q0 33 34 33h314q23 0 31 -12.5t8 -22.5v-586q0 -29 -12.5 -45t-43.5 -26q-84 -25 -177 -38t-181 -13q-152 0 -256.5 48t-169 137t-92 215t-27.5 282 z" />
<glyph unicode="H" horiz-adv-x="1218" d="M147 35v1286q0 23 9.5 30t27.5 7h88q16 0 24.5 -7.5t8.5 -29.5v-528h608v528q0 23 9.5 30t27.5 7h88q16 0 24.5 -7.5t8.5 -29.5v-1286q0 -35 -33 -35h-88q-37 0 -37 35v610h-608v-610q0 -35 -33 -35h-88q-37 0 -37 35z" />
<glyph unicode="I" horiz-adv-x="520" d="M176 35v1286q0 23 9.5 30t27.5 7h90q16 0 25.5 -7.5t9.5 -29.5v-1286q0 -35 -35 -35h-90q-37 0 -37 35z" />
<glyph unicode="J" horiz-adv-x="856" d="M18 74l15 57q4 14 11 19.5t26 1.5q45 -6 107.5 -12.5t105.5 -6.5q72 0 117.5 13.5t72.5 40t37 65.5t10 90v979q0 23 9.5 30t27.5 7h88q18 0 27.5 -7.5t9.5 -29.5v-993q0 -164 -87 -255t-296 -91q-66 0 -127 9t-123 34q-25 10 -30 21q-3 6 -3 14q0 6 2 14z" />
<glyph unicode="K" horiz-adv-x="1126" d="M143 35v1286q0 23 9.5 30t27.5 7h88q16 0 24.5 -7.5t8.5 -29.5v-715l4 -2l162 207l426 524q10 12 19.5 17.5t27.5 5.5h125q14 0 19.5 -9.5t-5.5 -19.5l-446 -547l459 -753q4 -6 4 -12q0 -3 -2 -7q-4 -10 -19 -10h-125q-18 0 -27.5 6t-19.5 23l-375 626l-227 -278v-342 q0 -35 -33 -35h-88q-37 0 -37 35z" />
<glyph unicode="L" horiz-adv-x="991" d="M154 33v1288q0 23 9 30t25 7h91q16 0 24 -7.5t8 -29.5v-1176h615q35 0 35 -34v-78q0 -33 -33 -33h-738q-37 0 -36 33z" />
<glyph unicode="M" horiz-adv-x="1513" d="M152 35v1292q0 31 30 31h90q20 0 28.5 -7.5t16.5 -23.5l340 -706l99 -213h4l100 221l340 696q10 16 19.5 24.5t31.5 8.5h82q31 0 31 -31v-1292q0 -35 -35 -35h-88q-37 0 -37 35v971h-6l-72 -158l-299 -610q-12 -27 -41 -27h-59q-18 0 -27.5 6t-15.5 19l-311 634l-64 136 h-4v-971q0 -35 -33 -35h-86q-35 0 -34 35z" />
<glyph unicode="N" horiz-adv-x="1288" d="M147 35v1292q0 31 33 31h84q23 0 32 -9.5t19 -23.5l555 -856l109 -172h6v1024q0 23 8 30t27 7h86q16 0 24.5 -7.5t8.5 -29.5v-1288q0 -33 -33 -33h-78q-23 0 -33 8t-20 25l-547 844l-119 194h-6v-1036q0 -35 -35 -35h-84q-37 0 -37 35z" />
<glyph unicode="O" horiz-adv-x="1306" d="M127 698q0 63 6 138t24.5 150t54.5 145.5t93 124t142 86t202 32.5q174 0 279.5 -59.5t161 -154.5t73 -216t17.5 -246q0 -121 -14.5 -247.5t-69 -231t-161 -171t-288.5 -66.5q-121 0 -206 30.5t-142 82.5t-91 123t-52.5 151t-23.5 163.5t-5 165.5zM291 678 q0 -125 15.5 -226.5t55 -174t108.5 -112.5t177 -40q111 0 182.5 38t114.5 108.5t59.5 174t16.5 232.5q0 133 -17.5 237.5t-60.5 175t-114.5 107.5t-180.5 37q-102 0 -170.5 -39t-109.5 -111.5t-58.5 -175t-17.5 -231.5z" />
<glyph unicode="P" horiz-adv-x="1054" d="M147 35v1290q0 33 37 33h389q90 0 168 -24.5t134.5 -74t88 -124t31.5 -172.5q0 -70 -19.5 -142.5t-67.5 -133t-129 -98.5t-204 -38h-268v-516q0 -35 -35 -35h-88q-37 0 -37 35zM307 692h266q78 0 129.5 22.5t81 60.5t42 86.5t12.5 99.5q0 129 -76 190t-201 61h-254v-520z " />
<glyph unicode="Q" horiz-adv-x="1312" d="M129 698q0 63 6 138t24.5 150t53.5 145.5t93.5 124t142 86t200.5 32.5q174 0 279.5 -59.5t162 -154.5t74 -216t17.5 -246q0 -92 -7.5 -186t-32 -181t-72.5 -160t-130 -120l264 -74q16 -4 18 -16q1 -5 1 -9q0 -7 -2 -13l-39 -84q-10 -29 -34 -29q-8 0 -18 4l-434 154 q-12 -2 -23 -2h-24q-121 0 -206 30.5t-142 82.5t-91 123t-52.5 151t-23.5 163.5t-5 165.5zM293 678q0 -125 16.5 -226.5t57.5 -174t109.5 -112.5t172.5 -40t176 38t115 108.5t62.5 174t19.5 232.5q0 133 -17.5 237.5t-60.5 175t-114.5 107.5t-180.5 37q-102 0 -170.5 -39 t-109.5 -111.5t-58.5 -175t-17.5 -231.5z" />
<glyph unicode="R" horiz-adv-x="1077" d="M137 35v1290q0 33 35 33h418q76 0 147.5 -21.5t127 -67.5t88 -120t32.5 -176q0 -57 -14.5 -115.5t-45 -110t-80.5 -91.5t-120 -62l281 -559q3 -7 3 -14q-1 -7 -3 -11q-6 -10 -19 -10h-117q-16 0 -26 5t-19 22l-262 544h-268v-534q0 -37 -35 -37h-88q-35 0 -35 35z M295 713h252q45 0 93 9t88 36.5t65.5 80t25.5 136.5q0 72 -22.5 118t-60.5 71.5t-86 35.5t-99 10h-256v-497z" />
<glyph unicode="S" horiz-adv-x="1077" d="M100 60q-2 5 -2 11t2 13l15 57q6 23 35 21q43 -6 94 -11.5t101 -9.5t94 -6t75 -2q154 0 232.5 57.5t78.5 161.5q0 70 -13 116t-46 75.5t-88 47t-137 32.5q-92 14 -172 35.5t-139.5 59.5t-93.5 101.5t-34 165.5q0 188 114 286.5t325 98.5q31 0 76 -2t96 -8t102 -16.5 t92 -26.5q23 -8 27 -19.5t0 -25.5l-12 -55q-4 -10 -11.5 -18.5t-27.5 -6.5q-68 10 -160 19.5t-182 9.5q-80 0 -134.5 -16.5t-86 -46.5t-45 -73t-13.5 -94q0 -61 15.5 -97t50 -58.5t90 -36t135.5 -27.5q88 -16 167 -36.5t137 -62.5t92 -112.5t34 -183.5q0 -111 -37 -186.5 t-101.5 -121.5t-149.5 -66.5t-179 -20.5q-43 0 -96 4t-106.5 11t-103.5 17.5t-83 24.5q-23 11 -27 21z" />
<glyph unicode="T" horiz-adv-x="985" d="M35 1245v80q0 33 35 33h848q35 0 34 -33v-80q0 -35 -37 -35h-344v-1175q0 -35 -32 -35h-88q-37 0 -37 35v1175h-342q-37 0 -37 35z" />
<glyph unicode="U" horiz-adv-x="1243" d="M141 492v829q0 23 8.5 30t26.5 7h90q16 0 25.5 -7.5t9.5 -29.5v-836q0 -172 80 -263t242 -91q158 0 241.5 86t83.5 268v836q0 23 9.5 30t27.5 7h88q16 0 24.5 -7.5t8.5 -29.5l-2 -829q0 -66 -6 -124.5t-29 -115.5q-59 -143 -177 -204.5t-269 -61.5q-346 0 -443 262 q-23 55 -31 115.5t-8 128.5z" />
<glyph unicode="V" horiz-adv-x="1142" d="M51 1325q-3 8 -3 14q0 17 22 17h104q18 0 26.5 -6.5t12.5 -22.5l205 -631l155 -489h7l155 489l201 631q8 29 41 29h102q20 0 20 -18q0 -7 -3 -15l-428 -1294q-8 -29 -41 -29h-107q-18 0 -26.5 6t-12.5 21z" />
<glyph unicode="W" horiz-adv-x="1669" d="M41 1327q-1 6 -1 11q0 20 21 20h107q18 0 25.5 -6t11.5 -23q61 -217 114 -399q23 -78 45.5 -155t41 -142.5t32 -112.5t19.5 -65l59 -209h4l58 200q2 12 15 59.5t31.5 112t39 138t40 138t33 113t17.5 62.5l-74 256q-10 33 18 33h107q31 0 39 -29q61 -217 114 -399 q23 -78 45.5 -155t41 -142.5t32 -112.5t19.5 -65l57 -209h6l53 200q6 18 19.5 66.5t32 114t40 143.5t44.5 156q53 182 114 403q4 16 12.5 22.5t26.5 6.5h103q19 0 19 -19q0 -8 -3 -18l-375 -1290q-8 -31 -39 -31h-106q-20 0 -28.5 6t-12.5 23l-193 659l-32 117l-5 -2 l-32 -121l-191 -653q-8 -29 -37 -29h-112q-29 0 -35 29z" />
<glyph unicode="X" horiz-adv-x="1069" d="M37 9q-1 3 -1 6q0 7 5 16l408 667l-377 627q-8 12 -4 22.5t18 10.5h119q23 0 29 -7.5t14 -19.5l160 -278l124 -217l127 223l158 270q12 27 47 27h111q16 2 20 -9.5t-2 -21.5l-377 -627l408 -669q5 -6 5 -12q0 -3 -2 -7q-5 -10 -19 -10h-117q-18 0 -26.5 6t-18.5 23 l-180 305l-134 227l-122 -213l-191 -319q-10 -16 -17 -22.5t-30 -6.5h-117q-14 0 -18 9z" />
<glyph unicode="Y" horiz-adv-x="1038" d="M35 1329q-2 5 -2 9.5t2 9.5q4 8 16 8h121q18 0 25.5 -6.5t13.5 -18.5l190 -358l113 -211h12l121 219l191 350q8 14 16 19.5t27 5.5h106q23 0 23 -15q0 -7 -4 -16l-408 -719v-571q0 -35 -33 -35h-86q-37 0 -37 35v571z" />
<glyph unicode="Z" horiz-adv-x="999" d="M74 33v71q0 35 16 62l651 1044h-591q-35 0 -35 35v80q0 33 32 33h744q33 0 33 -29v-82q0 -27 -17 -53l-645 -1049h633q35 0 35 -32v-78q0 -35 -33 -35h-791q-33 0 -32 33z" />
<glyph unicode="[" horiz-adv-x="518" d="M86 -172v1565q0 31 35 30h264q29 0 29 -26v-76q0 -29 -33 -29h-148v-1366h150q31 0 31 -26v-76q0 -29 -31 -29h-260q-37 0 -37 33z" />
<glyph unicode="\" horiz-adv-x="524" d="M23 1389q-6 31 14 30h67q27 0 33 -26l357 -1495q6 -29 -19 -29h-69q-23 0 -29 25z" />
<glyph unicode="]" horiz-adv-x="516" d="M102 -100q0 27 31 26h156v1366h-154q-33 0 -33 29v76q0 27 29 26h268q37 0 37 -30v-1567q0 -31 -39 -31h-264q-31 0 -31 29v76z" />
<glyph unicode="^" horiz-adv-x="1003" d="M36 817q1 4 7 14l365 500q10 14 20 19.5t33 5.5h86q29 0 39 -6.5t18 -18.5l350 -500q12 -23 2 -30l-38 -31q-20 -16 -33 -2l-381 461l-383 -451q-18 -18 -39 -2l-37 29q-10 8 -9 12z" />
<glyph unicode="_" horiz-adv-x="1024" d="M-14 -197q0 29 28 29h994q31 0 30 -29v-47q0 -25 -28 -24h-996q-29 0 -28 22v49z" />
<glyph unicode="`" horiz-adv-x="1019" d="M340 1404q-2 9 12 15l94 41q27 12 35 -6l144 -293q10 -23 -7 -28l-59 -27q-20 -8 -31 6l-182 277q-4 6 -6 15z" />
<glyph unicode="a" horiz-adv-x="1052" d="M90 266q0 174 88 259t293 85h283v70q0 113 -52.5 156t-187.5 43q-29 0 -64.5 -1t-74.5 -4.5t-78 -6.5t-72 -7q-35 -6 -41 19l-12 53q-4 14 3 24.5t30 20.5q31 10 74 18.5t90 13.5t93 7t83 2q123 0 195.5 -26.5t110.5 -74t48 -115t10 -149.5v-452q0 -31 3 -47.5 t10.5 -24.5t21.5 -11t39 -5q35 -2 35 -27v-51q0 -14 -8.5 -23.5t-32.5 -13.5q-37 -6 -72 -6q-72 0 -105.5 26.5t-43.5 92.5h-4q-76 -45 -169.5 -86t-215.5 -41q-150 0 -213.5 71.5t-63.5 210.5zM248 272q0 -86 33.5 -116.5t124.5 -30.5q39 0 85 10t93 27.5t91 38t79 41.5 v239h-301q-94 0 -149.5 -43t-55.5 -166z" />
<glyph unicode="b" horiz-adv-x="1042" d="M104 113v1292q0 23 7.5 30t27.5 7h86q23 0 30 -8.5t7 -28.5v-444l2 -5q92 35 164 48.5t127 13.5q119 0 196.5 -36t122 -103.5t61.5 -161.5t17 -211q0 -127 -19.5 -224.5t-67.5 -164t-129 -101t-204 -34.5q-47 0 -99 3t-103 9t-96.5 15t-79.5 22q-35 12 -42.5 35.5 t-7.5 46.5zM264 150q59 -10 128 -15.5t134 -5.5q59 0 108.5 11.5t83.5 49t52 108t18 189.5q0 106 -11 181t-37.5 121.5t-69.5 67t-107 20.5q-66 0 -143.5 -11.5t-155.5 -34.5v-681z" />
<glyph unicode="c" horiz-adv-x="870" d="M92 506q0 98 13.5 190t57.5 164t125 115t216 43q31 0 71.5 -2t82.5 -7t83 -14.5t74 -23.5q15 -7 19 -19q2 -8 3 -15q0 -4 -1 -9l-9 -47q-4 -16 -19 -20.5t-34 -2.5q-63 6 -140 13.5t-132 7.5q-70 0 -117 -19.5t-74.5 -62.5t-40 -114t-12.5 -175q0 -113 12.5 -186.5 t41 -117.5t75.5 -62.5t115 -18.5q25 0 60.5 2t73.5 5t77 6t69 7q18 2 29.5 -2t15.5 -24l9 -43q1 -5 1 -10q0 -22 -24 -33q-57 -27 -144 -37t-165 -10q-135 0 -216 41t-125 112.5t-57.5 165.5t-13.5 203z" />
<glyph unicode="d" horiz-adv-x="1044" d="M88 489q0 129 18.5 227.5t64.5 165t124 101.5t197 35q55 0 125.5 -12.5t154.5 -44.5l4 2v442q0 20 6 29.5t29 9.5h86q20 0 26.5 -8.5t6.5 -30.5v-1370q0 -35 -33 -35h-86q-16 0 -25.5 6t-9.5 29v76l-6 2q-23 -14 -60.5 -37t-83.5 -43.5t-99.5 -34.5t-104.5 -14 q-96 0 -160.5 33.5t-103.5 98t-54.5 159t-15.5 214.5zM250 485q0 -117 11 -187.5t34.5 -109t58.5 -51t82 -12.5q37 0 85 13.5t95.5 31.5t90.5 37.5t67 34.5v589q-84 25 -156.5 35.5t-138.5 10.5t-109.5 -19.5t-70.5 -66t-38 -121t-11 -185.5z" />
<glyph unicode="e" horiz-adv-x="1001" d="M94 498q0 74 12.5 165t55.5 169.5t125 132t223 53.5q131 0 211 -39t124 -102.5t59.5 -145.5t19.5 -166v-10q0 -43 -16 -73q-18 -34 -74 -33h-578q2 -92 16.5 -155t47 -100.5t83 -53t121.5 -15.5q31 0 70 3l78 6t74.5 7t62.5 9q20 2 31.5 -2.5t15.5 -24.5l8 -45 q6 -29 -22 -41q-29 -12 -70 -22.5t-86 -17.5t-90 -11t-82 -4q-141 0 -224 44t-126 115.5t-56.5 164.5t-13.5 192zM256 578h502q0 53 -9.5 107t-36 97t-75.5 70t-131 27q-68 0 -114 -21.5t-74.5 -60.5t-43 -94.5t-18.5 -124.5z" />
<glyph unicode="f" horiz-adv-x="741" d="M68 903v58q0 37 34 36h103v117q0 76 17.5 137.5t56 104.5t102.5 66.5t156 23.5q14 0 40.5 -2t59.5 -7t67.5 -13.5t65.5 -20.5q16 -6 20 -19q2 -7 2 -15q0 -5 -1 -9l-9 -47q-4 -16 -19 -21.5t-34 -1.5q-63 10 -107 13.5t-67 3.5q-104 0 -151.5 -45t-47.5 -152v-113h256 q35 0 35 -34v-60q0 -35 -35 -35h-256v-833q0 -35 -32 -35h-84q-37 0 -37 35v833h-101q-35 0 -34 35z" />
<glyph unicode="g" horiz-adv-x="1046" d="M98 494q0 125 20.5 222t70 164.5t130 102.5t201.5 35q47 0 98.5 -4t100.5 -10.5t94 -15.5t82 -19q35 -10 43 -35t8 -47v-891q0 -82 -12 -150.5t-53 -119t-119 -78t-209 -27.5q-39 0 -84 2t-89 7t-86 14.5t-75 23.5q-20 8 -23 19.5t1 23.5l8 45q4 18 16 22.5t35 0.5 q66 -10 145.5 -14.5t143.5 -4.5q72 0 118 11.5t73.5 36t38.5 62.5t11 91v82q-94 -35 -164.5 -48t-125.5 -13q-119 0 -196 35.5t-122 103t-62.5 162t-17.5 211.5zM262 512q0 -109 12.5 -182.5t40 -120.5t70.5 -67.5t107 -20.5q57 0 137 12t157 35v682q-59 8 -127.5 15 t-134.5 7q-55 0 -103 -12t-84 -50t-55.5 -108.5t-19.5 -189.5z" />
<glyph unicode="h" horiz-adv-x="1048" d="M113 35v1374q0 35 32 35h84q37 0 37 -35v-520l2 -2q25 16 65 38.5t88 43t102.5 35t109.5 14.5q100 0 158.5 -28.5t89 -79t40 -120t9.5 -151.5v-604q0 -35 -37 -35h-86q-35 0 -35 35l2 624q0 66 -8 108t-27.5 66.5t-51.5 34t-79 9.5q-37 0 -86 -14.5t-98 -33t-92 -38 t-66 -31.5v-725q0 -35 -37 -35h-84q-33 0 -32 35z" />
<glyph unicode="i" horiz-adv-x="456" d="M141 1264q0 39 17.5 63.5t70.5 24.5q55 0 71.5 -23.5t16.5 -64.5q0 -39 -15 -66t-73 -27q-59 0 -73.5 28t-14.5 65zM152 35v928q0 23 9 28.5t27 5.5h84q33 0 33 -34v-928q0 -35 -33 -35h-84q-37 0 -36 35z" />
<glyph unicode="j" horiz-adv-x="491" d="M-100 -336v8q0 14 6 20q8 7 22 11q72 14 120 27.5t77 36t41 60.5t12 99v1037q0 23 9.5 28.5t27.5 5.5h82q37 0 37 -34v-1033q0 -72 -12.5 -136t-53.5 -113.5t-118 -76.5q-66 -23 -172 -23q-16 0 -33 1q-10 0 -24.5 6t-16.5 29zM168 1264q0 39 17.5 63.5t70.5 24.5 q55 0 71.5 -23.5t16.5 -64.5q0 -39 -15.5 -66t-72.5 -27q-59 0 -73.5 28t-14.5 65z" />
<glyph unicode="k" horiz-adv-x="913" d="M125 35v1374q0 35 35 35h84q37 0 37 -35v-917l4 -3l106 138l289 346q10 14 18.5 20t26.5 6h106q16 0 23.5 -12t-4.5 -26l-305 -367l346 -557q5 -7 5 -14q0 -5 -3 -11q-6 -12 -23 -12h-106q-18 0 -27.5 7t-19.5 22l-273 446l-163 -199v-241q0 -35 -37 -35h-84 q-35 0 -35 35z" />
<glyph unicode="l" horiz-adv-x="485" d="M145 158v1249q0 35 35 35h82q18 0 27.5 -6t9.5 -29v-1198q0 -53 22.5 -65t79.5 -11q33 0 35 -20l8 -66q2 -25 -20 -35q-25 -10 -54.5 -16t-56.5 -6q-51 0 -83.5 12t-51 33.5t-26 53.5t-7.5 69z" />
<glyph unicode="m" horiz-adv-x="1658" d="M117 35v928q0 35 33 34h83q37 0 37 -34v-70v-2h2q31 18 69 40.5t82 42t91 32t96 12.5q113 0 175.5 -38t88.5 -110q80 55 173.5 101.5t197.5 46.5q96 0 154.5 -26.5t89.5 -75t41 -116t10 -149.5v-616q0 -35 -35 -35h-86q-35 0 -35 35v616q0 63 -7 106.5t-25.5 70t-49 38 t-77.5 11.5q-37 0 -81 -13.5t-89 -32t-86 -39t-68 -34.5q2 -12 3 -41t1 -70v-612q0 -35 -35 -35h-90q-31 0 -30 35l2 631q0 100 -31 155.5t-125 55.5q-35 0 -76 -11.5t-85 -29t-87 -38t-78 -38.5v-725q0 -35 -34 -35h-86q-33 0 -33 35z" />
<glyph unicode="n" horiz-adv-x="1034" d="M109 35v928q0 35 32 34h84q18 0 27.5 -6t9.5 -28v-74l6 -2q25 16 64 38.5t87 43t101 35t109 14.5q100 0 158.5 -28.5t89 -79t40 -120t9.5 -151.5v-604q0 -35 -37 -35h-86q-35 0 -35 35l2 606q0 70 -8 116t-27.5 72.5t-51.5 37t-79 10.5q-37 0 -86 -14.5t-98 -33t-92 -38 t-66 -31.5v-725q0 -35 -37 -35h-84q-33 0 -32 35z" />
<glyph unicode="o" horiz-adv-x="1030" d="M94 516q0 74 12.5 162t54.5 164t124 126t223 50t226 -44t130 -115t58.5 -161t13.5 -182q0 -90 -10.5 -184t-52.5 -172t-128 -127t-237 -49q-147 0 -230 49t-124 126t-50.5 172t-9.5 185zM252 502q0 -94 10 -164t39 -117t78 -70.5t129 -23.5q84 0 136 22.5t82 68.5t40 117 t10 167q0 94 -10 164.5t-40 116.5t-82 70t-136 24q-80 0 -129 -24t-78 -71t-39 -116.5t-10 -163.5z" />
<glyph unicode="p" horiz-adv-x="1019" d="M113 -322v1285q0 35 34 34h84q35 0 35 -34v-74l6 -4q23 14 61 36.5t85 43t99 36t104 15.5q96 0 160.5 -34t102.5 -98.5t54 -158.5t16 -217q0 -127 -18 -225.5t-64.5 -165t-123 -101t-195.5 -34.5q-57 0 -129 12t-154 45l-2 -2v-359q0 -20 -7 -29t-30 -9h-84 q-23 0 -28.5 8t-5.5 30zM268 168q86 -25 158 -35t137 -10q66 0 110 19.5t70.5 65.5t38 120.5t11.5 185.5q0 117 -11.5 187.5t-35 109.5t-58.5 51t-82 12q-37 0 -85 -12t-95 -30.5t-89 -39t-69 -34.5v-590z" />
<glyph unicode="q" horiz-adv-x="1046" d="M98 487q0 125 21.5 223.5t72 167t133.5 104.5t203 36q43 0 92.5 -3t99.5 -9.5t96 -15.5t81 -21q35 -10 42 -35t7 -47v-1209q0 -38 -33 -38h-2h-86q-23 0 -30 9t-7 29v363l-2 2q-92 -35 -163.5 -47t-126.5 -12q-119 0 -196 30.5t-122 93t-62.5 157.5t-17.5 222zM262 496 q0 -109 12.5 -180.5t40 -114.5t70.5 -61.5t107 -18.5q57 0 138 12t158 35v682q-61 10 -125.5 16t-130.5 6q-55 0 -104 -14t-86 -56t-58.5 -116t-21.5 -190z" />
<glyph unicode="r" horiz-adv-x="671" d="M164 35v928q0 35 33 34h86q37 0 36 -34v-84l5 -5q20 16 56 36t79 39.5t88 34.5t84 24q8 2 13 2q8 0 12 -4q6 -6 10 -23l8 -86q1 -6 1 -11q0 -27 -28 -30q-41 -8 -90 -21.5t-95 -26.5t-85 -26.5t-58 -23.5v-723q0 -35 -34 -35h-88q-33 0 -33 35z" />
<glyph unicode="s" horiz-adv-x="892" d="M90 74l8 43q4 20 15.5 24t29.5 2q31 -4 71 -8t80 -7t76 -5t62 -2q115 0 165 36t50 113q0 45 -8 75t-30.5 48.5t-61.5 28.5t-101 20q-70 10 -134 26.5t-113 47.5t-79 80t-30 129q0 143 96.5 218t262.5 75q31 0 69.5 -2t80.5 -7t83 -15t74 -21q29 -14 20 -43l-8 -49 q-4 -16 -17.5 -20.5t-35.5 -2.5q-63 6 -133 13.5t-136 7.5q-115 0 -155.5 -35t-40.5 -115q0 -39 10 -61.5t33.5 -37t64.5 -23.5t103 -19q68 -10 131 -25.5t111.5 -48.5t77 -86t28.5 -141q0 -86 -32 -143.5t-86 -93.5t-122.5 -51t-142.5 -15q-39 0 -82 2t-85 8t-80 15t-66 22 q-24 10 -24 35q0 4 1 8z" />
<glyph unicode="t" horiz-adv-x="661" d="M49 903v58q0 37 35 36h115v222q0 18 9 26t25 12l82 23q7 2 12 2q23 0 23 -33v-252h228q23 0 28.5 -9t5.5 -25v-60q0 -18 -6 -26.5t-28 -8.5h-228v-620q0 -37 5 -59.5t21.5 -37t44.5 -19.5t75 -5q16 0 56 3t62 5q25 2 33 -3t12 -21l9 -48q2 -27 -19 -38q-18 -10 -48 -17.5 t-63.5 -12.5t-65.5 -8t-54 -3q-66 0 -109 15t-67.5 44t-34.5 69t-10 89v667h-113q-35 0 -35 35z" />
<glyph unicode="u" horiz-adv-x="1048" d="M115 358v605q0 34 33 34h2h88q33 0 32 -34v-607q0 -72 8.5 -116.5t28 -71.5t52 -37t79.5 -10q37 0 86 14.5t98.5 32.5t92.5 38.5t67 33.5v723q0 34 33 34h2h84q35 0 35 -34v-928q0 -35 -35 -35h-84q-37 0 -37 35v71l-4 5q-25 -16 -64.5 -39t-86.5 -43.5t-100.5 -34.5 t-108.5 -14q-100 0 -159.5 28.5t-91.5 78.5t-41 119.5t-9 151.5z" />
<glyph unicode="v" horiz-adv-x="948" d="M38 987q3 10 17 10h113q16 0 21.5 -7t11.5 -21l205 -574l32 -98q12 -39 23.5 -71.5t15.5 -43.5h4q2 8 13.5 44t25.5 75q16 45 35 100l201 570q6 16 11 21t19 5h113q19 0 19 -13q0 -7 -5 -17l-354 -940q-10 -27 -35 -27h-94q-16 0 -22.5 6t-10.5 19l-358 940q-2 7 -2 13 q0 5 1 9z" />
<glyph unicode="w" horiz-adv-x="1409" d="M38 987q3 10 17 10h111q16 0 23.5 -7t11.5 -21q37 -119 74.5 -236t74.5 -237l90 -289h4l93 282q23 68 47 138.5t47 142.5l-58 195q-4 12 -1 22t18 10h108q16 0 22.5 -7t10.5 -21l148 -459q23 -76 47 -152.5t47 -154.5h2h2l100 332l135 436q8 26 29 26h2h113q17 0 17 -14 q0 -6 -3 -16l-313 -940q-8 -27 -35 -27h-90q-16 0 -23.5 6t-11.5 19q-27 78 -53.5 156.5t-52.5 160.5q-18 59 -40 120.5t-42 125.5h-4l-80 -244l-105 -317q-8 -27 -33 -27h-90q-16 0 -23 6t-12 19l-323 940q-2 7 -2 13q0 5 1 9z" />
<glyph unicode="x" horiz-adv-x="886" d="M22 10q-2 4 -1 8q0 7 4 15l325 475l-309 457q-8 12 -3 22t19 10h123q16 0 21.5 -7t15.5 -19l223 -338l222 338q8 12 14 19t22 7h125q14 0 19.5 -10t-2.5 -22l-312 -455l326 -477q5 -7 5 -14q0 -5 -2 -9q-5 -10 -19 -10h-125q-16 0 -24.5 7t-16.5 20l-234 360l-235 -360 q-16 -27 -43 -27h-119q-15 0 -19 10z" />
<glyph unicode="y" horiz-adv-x="954" d="M50 987q3 10 18 10h108q16 0 22.5 -7t10.5 -21l168 -469l110 -314q4 12 23.5 64.5t40.5 111.5q23 68 51 152l156 457q8 26 31 26h2h110q17 0 17 -14q0 -7 -3 -16l-469 -1299q-4 -14 -12 -21t-28 -7h-95q-29 0 -18 32l119 328l-361 965q-2 7 -2 13q0 5 1 9z" />
<glyph unicode="z" horiz-adv-x="886" d="M68 29v59q0 35 18 59l541 711h-496q-35 0 -35 35v74q0 30 33 30h2h637q16 0 26.5 -4t10.5 -24v-74q0 -33 -21 -57l-522 -693h514q37 0 37 -32v-78q0 -35 -35 -35h-680q-31 0 -30 29z" />
<glyph unicode="{" horiz-adv-x="544" d="M49 592v43q0 18 23 24q72 23 87 76t15 125v387q0 37 8 71t27.5 61.5t52.5 44t82 16.5q16 0 46 -3t61 -7q14 -4 21 -10.5t7 -22.5v-47q0 -18 -8 -23.5t-22 -7.5l-60 -4q-43 -4 -55 -21.5t-12 -58.5v-377q0 -33 -4.5 -69.5t-16.5 -70.5t-34.5 -62.5t-59.5 -43.5l2 -4 q39 -20 60.5 -45.5t32.5 -55.5t14 -64.5t3 -73.5v-396q0 -41 13.5 -58t56.5 -21l60 -5q14 -2 22 -7t8 -21v-49q0 -27 -28 -31q-31 -6 -61 -8t-46 -2q-49 0 -82 16t-52.5 43t-27.5 60.5t-8 70.5v406q0 35 -2 66.5t-12 57t-29.5 45t-56.5 29.5q-25 6 -25 27z" />
<glyph unicode="|" horiz-adv-x="485" d="M178 -203v1594q0 23 9.5 28.5t27.5 5.5h55q33 0 33 -34v-1594q0 -35 -33 -35h-55q-18 0 -27.5 6.5t-9.5 28.5z" />
<glyph unicode="}" horiz-adv-x="544" d="M49 -139q0 16 8.5 21t22.5 7l59 5q43 4 56.5 21t13.5 58v396q0 39 3 73.5t14.5 64.5t33 55.5t59.5 45.5l3 4q-37 14 -59.5 43t-35 63t-16.5 70.5t-4 69.5v377q0 41 -12.5 58.5t-55.5 21.5l-59 4q-14 2 -22.5 7t-8.5 24v47q0 16 7 22t22 11q31 4 60.5 7t45.5 3 q49 0 82 -16.5t52.5 -44t27.5 -61.5t8 -71v-387q0 -72 15.5 -125t87.5 -76q23 -6 22 -24v-43q0 -20 -24 -27q-37 -10 -56.5 -29.5t-30 -45t-12.5 -57.5t-2 -66v-406q0 -37 -8 -70.5t-27.5 -60.5t-52.5 -43t-82 -16q-16 0 -45.5 2t-60.5 8q-29 4 -29 31v49z" />
<glyph unicode="~" d="M161 550.5q3 10.5 5 14.5q43 94 110.5 127t124.5 33q49 0 100.5 -17.5t100.5 -39t94 -39t82 -17.5q47 0 75 18.5t54 55.5q6 8 16.5 16.5t26.5 -2.5l41 -24q18 -10 16.5 -19.5t-3.5 -15.5q-84 -164 -240 -164q-43 0 -92 18.5t-98.5 40t-95.5 40t-85 18.5t-66.5 -14.5 t-72.5 -69.5q-6 -4 -12 -10t-25 4l-41 26q-18 10 -15 20.5z" />
<glyph unicode="&#xa1;" horiz-adv-x="458" d="M135 899q0 41 17.5 69.5t76.5 28.5q61 0 77 -28.5t16 -69.5t-17.5 -66.5t-75.5 -25.5q-59 0 -76.5 25.5t-17.5 66.5zM147 -348l25 950q2 33 25 33h53q29 0 29 -33l20 -950q0 -35 -33 -35h-90q-29 0 -29 35z" />
<glyph unicode="&#xa2;" d="M197 502q0 98 14 192t61 167t137.5 117t243.5 40l43 280q2 12 6.5 17.5t20.5 5.5h53q12 -2 18.5 -6t2.5 -23l-41 -282q45 -6 89 -15.5t79 -23.5q16 -6 19 -18.5t1 -24.5l-8 -47q-4 -16 -19.5 -20.5t-33.5 -2.5l-148 14l-110 -749q70 0 136 6t126 14q18 2 29.5 -2 t15.5 -24l8 -43q6 -29 -22 -43q-57 -27 -144.5 -37t-169.5 -10l-43 -287q-2 -14 -5 -23.5t-19 -7.5l-68 2q-23 2 -20 25l47 299q-98 14 -156.5 58t-90.5 110.5t-42 152.5t-10 189zM362 508q0 -184 35 -270t121 -107l113 748q-76 0 -127 -19.5t-83 -62.5t-45.5 -114 t-13.5 -175z" />
<glyph unicode="&#xa3;" d="M131 29v61q0 14 7 27.5t26 23.5q39 18 62.5 50t34.5 71t14.5 82t3.5 84q0 10 1 54t1 118h-95q-35 0 -34 35v67q0 31 32 31h97l-5 281q-2 82 25 147.5t76 111.5t118.5 71.5t153.5 25.5q31 0 70 -2t83 -8t89 -16.5t86 -26.5q35 -16 24 -47l-12 -56q-2 -10 -10 -18t-27 -4 q-70 8 -138.5 18.5t-158.5 10.5q-123 0 -174 -55.5t-49 -159.5l6 -273h371q35 0 35 -31v-67q0 -35 -35 -35h-371v-133q0 -43 -3 -91t-10 -92t-21.5 -80t-34.5 -57h79.5t153.5 -1t183.5 -1h170.5q35 0 35 -34v-82q0 -18 -8 -23.5t-29 -5.5h-790q-33 0 -33 29z" />
<glyph unicode="&#xa4;" horiz-adv-x="1030" d="M49 139q-23 23 8 49l129 127q-45 66 -59 136.5t-14 123.5q0 37 13 101.5t52 130.5l-117 117q-25 25 -4 47l66 63q16 16 24.5 14.5t20.5 -14.5l113 -114q41 29 97 45t130 18q74 0 132 -17.5t105 -50.5l125 127q25 25 48 2l63 -63q16 -16 14 -25.5t-14 -23.5l-131 -129 q35 -55 50 -113.5t15 -105.5q0 -49 -15 -117t-56 -131l133 -133q16 -14 19 -24.5t-13 -26.5l-63 -66q-23 -20 -50 8l-133 133q-43 -29 -100 -45t-129 -14q-66 0 -117 12.5t-92 34.5l-133 -135q-14 -16 -24.5 -18.5t-26.5 14.5zM272 575q0 -123 60.5 -193.5t175.5 -70.5 q119 0 184.5 75t65.5 189q0 123 -65.5 194t-184.5 71q-115 0 -175.5 -71t-60.5 -194z" />
<glyph unicode="&#xa5;" d="M82 1347.5q4 8.5 16 8.5h123q18 0 24.5 -6.5t14.5 -18.5l303 -577h12l312 577q8 14 15 19.5t26 5.5h108q33 0 17 -31l-381 -674h311q20 0 21 -22v-70q0 -18 -19 -18h-338v-90h334q23 0 23 -25v-70q0 -18 -19 -18h-338v-303q0 -35 -35 -35h-88q-35 0 -35 35v303h-333 q-20 0 -21 20v74q0 6 5 12.5t18 6.5h331v90h-333q-10 0 -15.5 3t-5.5 15v74q0 18 23 18h307l-381 678q-6 10 -2 18.5z" />
<glyph unicode="&#xa6;" horiz-adv-x="485" d="M178 -203v752q0 23 9.5 29t27.5 6h55q33 0 33 -35v-752q0 -35 -33 -35h-55q-18 0 -27.5 6.5t-9.5 28.5zM178 682v700q0 23 9.5 29t27.5 6h55q33 0 33 -35v-700q0 -35 -33 -35h-55q-18 0 -27.5 6t-9.5 29z" />
<glyph unicode="&#xa7;" horiz-adv-x="872" d="M74 -193l16 43q8 27 47 17q74 -20 142.5 -27.5t119.5 -7.5q39 0 82 8t79 29.5t59.5 61.5t23.5 102q0 47 -34 88t-70 63q-63 35 -135 63.5t-140 65.5q-31 16 -61.5 39t-57 53.5t-43 69.5t-16.5 88q0 63 27.5 140t87.5 137q-66 47 -88.5 102t-22.5 119q0 80 33 137t87 95 t121.5 56.5t137.5 18.5q37 0 78 -4t82 -11t77.5 -19.5t65.5 -30.5q20 -12 12 -39l-16 -45q-6 -16 -15.5 -19.5t-31.5 2.5q-29 6 -62.5 12.5t-67.5 9.5t-62.5 5t-45.5 2q-49 0 -92 -10.5t-76.5 -30t-53 -50t-19.5 -69.5q0 -31 14 -57.5t35.5 -49t47.5 -40t48 -29.5 q59 -33 122.5 -59.5t123.5 -59.5q72 -39 120 -97t48 -147q0 -76 -26.5 -143t-90.5 -135q113 -98 113 -215q0 -106 -43 -173t-104.5 -104.5t-132.5 -51t-126 -13.5q-37 0 -79 4t-83 13.5t-78.5 22.5t-64.5 30q-20 12 -12 40zM227 600q0 -66 41 -107.5t101 -72.5 q49 -27 104 -47.5t107 -42.5q35 43 54 81t19 87q0 72 -42 112.5t-97 69.5q-49 25 -101.5 45t-105.5 49q-37 -37 -58.5 -82t-21.5 -92z" />
<glyph unicode="&#xa8;" horiz-adv-x="1019" d="M283 1249q0 35 16 59.5t70 24.5q53 0 68.5 -23.5t15.5 -60.5t-15.5 -63.5t-68.5 -26.5q-57 0 -71.5 27.5t-14.5 62.5zM659 1249q0 35 16.5 59.5t67.5 24.5q53 0 69.5 -23.5t16.5 -60.5t-16 -63.5t-70 -26.5q-55 0 -69.5 27.5t-14.5 62.5z" />
<glyph unicode="&#xa9;" horiz-adv-x="1626" d="M86 686q0 150 56.5 281t154.5 227t230 152.5t282 56.5q154 0 287 -56.5t230 -152.5t152.5 -227t55.5 -281t-57.5 -281t-155.5 -227t-230.5 -152.5t-281.5 -56.5q-150 0 -282 56.5t-230 152.5t-154.5 227.5t-56.5 280.5zM190 686q0 -129 48.5 -241.5t132.5 -196.5 t196.5 -133t241.5 -49t241.5 49t196.5 133t133.5 196.5t49.5 241.5t-49.5 241.5t-133.5 196.5t-196.5 133.5t-241.5 49.5t-241.5 -49.5t-196.5 -133.5t-132.5 -196.5t-48.5 -241.5zM500 659q0 82 11 161t46 139.5t97.5 97.5t164.5 37q18 0 46 -1t59.5 -5.5t63.5 -10.5 t56 -16q20 -10 17 -27l-8 -37q-2 -4 -7.5 -10t-17.5 -2q-41 6 -97.5 11t-111.5 5q-74 0 -117 -27.5t-65.5 -74.5t-28.5 -108.5t-6 -131.5q0 -63 8 -122.5t31 -104.5t66 -71.5t112 -26.5q57 0 109.5 5t99.5 11q12 4 17.5 -2t7.5 -12l6 -33q2 -10 0 -16t-15 -11 q-23 -10 -53 -16t-63 -10t-61.5 -6t-47.5 -2q-98 0 -160.5 34.5t-98.5 93t-48 133.5t-12 156z" />
<glyph unicode="&#xaa;" horiz-adv-x="716" d="M55 680q0 117 64.5 174t206.5 57h180v35q0 66 -36 93.5t-134 27.5q-39 0 -86 -3t-90 -11q-16 -4 -26.5 -2t-14.5 20l-8 39q-4 25 30 37q43 14 110.5 21.5t121.5 7.5q88 0 140 -18.5t80 -50.5t36 -78t8 -101v-273q0 -23 2 -36t7 -19t15.5 -8t26.5 -4q25 0 25 -19v-43 q0 -20 -33 -26q-35 -6 -57 -6q-106 -2 -115 84h-2q-39 -33 -98.5 -62t-151.5 -29q-106 0 -153.5 50.5t-47.5 142.5zM184 684q0 -47 21.5 -65.5t75.5 -18.5q51 0 114.5 23.5t110.5 48.5v135h-195q-57 0 -92 -25.5t-35 -97.5z" />
<glyph unicode="&#xab;" horiz-adv-x="862" d="M76 386q2 13 12 24l205 254q10 10 21.5 18t27.5 8h123q10 0 12 -7t-4 -15l-237 -289l225 -285q6 -8 5 -18t-15 -10h-111q-20 0 -29.5 10t-19.5 20l-201 254q-16 23 -14 36zM396.5 384.5q2.5 14.5 11.5 25.5l206 254q8 10 19.5 18t28.5 8h122q10 0 12.5 -7t-3.5 -15 l-238 -289l227 -285q4 -8 3 -17t-17 -9h-106q-20 0 -30.5 9t-21.5 19l-200 254q-16 20 -13.5 34.5z" />
<glyph unicode="&#xac;" d="M170 639v63q0 31 31 31h737q31 0 31 -28v-404q0 -31 -31 -31h-57q-29 0 -29 29v311h-653q-29 0 -29 29z" />
<glyph unicode="&#xad;" horiz-adv-x="757" d="M72 629v63q0 16 7 21.5t21 5.5h557q14 0 21.5 -5t7.5 -22v-63q0 -25 -29 -25h-557q-29 0 -28 25z" />
<glyph unicode="&#xae;" horiz-adv-x="1062" d="M78 1036q0 94 36 176t97 142.5t143 95.5t176 35q96 0 179.5 -35t143.5 -95.5t95 -142.5t35 -176t-36 -176t-97.5 -143.5t-143 -96t-176.5 -34.5q-94 0 -176 34.5t-143 96t-97 143.5t-36 176zM154 1036q0 -78 29.5 -146.5t80.5 -119.5t120 -81t146 -30q78 0 146.5 30 t119 81t80 119.5t29.5 146.5t-29.5 146.5t-80 119t-119 80t-146.5 29.5t-146.5 -29.5t-119.5 -80t-80.5 -119t-29.5 -146.5zM373 774v514q0 16 20 17h166q63 0 113.5 -37t50.5 -123q0 -47 -22.5 -91t-79.5 -67l112 -213q8 -18 -10 -18h-57q-14 0 -23 12l-102 209h-92v-201 q0 -20 -19 -20h-41q-16 0 -16 18zM449 1047h94q18 0 35.5 3t33 13t24.5 29.5t9 52.5q0 53 -30.5 71.5t-71.5 18.5h-94v-188z" />
<glyph unicode="&#xaf;" horiz-adv-x="1019" d="M270 1198v78q0 16 7.5 21.5t21.5 5.5h516q14 0 21.5 -5.5t7.5 -21.5v-78q0 -25 -29 -24h-516q-29 0 -29 24z" />
<glyph unicode="&#xb0;" horiz-adv-x="716" d="M102 1102q0 55 21.5 104t58.5 86t87.5 58.5t105.5 21.5t104 -22.5t85 -59.5t56.5 -86t20.5 -102q0 -55 -20.5 -104.5t-56.5 -85t-85 -56t-104 -20.5q-129 0 -201 76.5t-72 189.5zM213 1098q0 -66 45 -111t111 -45t111.5 45t45.5 111q0 33 -12 62.5t-33.5 51t-50.5 35 t-61 13.5q-33 0 -60.5 -13.5t-49 -35t-34 -51.5t-12.5 -62z" />
<glyph unicode="&#xb1;" d="M170 635v72q0 16 6 21t21 5h307v297q0 14 5 21.5t21 7.5h84q25 0 25 -29v-297h299q16 0 23.5 -5t7.5 -21v-72q0 -25 -31 -25h-299v-313q0 -29 -25 -29h-84q-16 0 -21 7.5t-5 21.5v313h-307q-27 0 -27 25zM172 96v64q0 16 7 21t22 5h737q14 0 21.5 -5t7.5 -21v-64 q0 -25 -29 -24h-737q-29 0 -29 24z" />
<glyph unicode="&#xb2;" horiz-adv-x="741" d="M57 717v45q0 23 8.5 35t14.5 18l340 322q37 37 64.5 78.5t27.5 89.5q0 29 -5 51t-23.5 38.5t-53.5 26t-92 9.5q-55 0 -116.5 -4.5t-102.5 -8.5q-33 -4 -39 21l-8 35q-4 14 0 26t26 21q25 8 58.5 14t67.5 9t63.5 5t50.5 2q168 0 235.5 -63.5t67.5 -167.5 q0 -80 -26.5 -136.5t-94.5 -121.5l-276 -262h381q16 0 25 -6.5t9 -26.5v-49q0 -33 -34 -33h-535q-16 0 -24.5 6t-8.5 27z" />
<glyph unicode="&#xb3;" horiz-adv-x="741" d="M55 758l6 28q4 12 11.5 21.5t27.5 5.5q47 -8 105.5 -14t118.5 -6q41 0 78.5 6t67.5 26.5t47.5 59.5t17.5 102q0 47 -37 69.5t-86 30.5l-156 23q-37 6 -37 45v37q0 23 19 41l213 192h-349q-16 0 -25 6.5t-9 24.5v53q0 33 32 33h492q23 0 31 -11t8 -22v-51q0 -33 -35 -61 l-197 -180l74 -11q92 -14 142.5 -64t50.5 -151q0 -96 -25 -157.5t-70 -96.5t-109.5 -49t-144.5 -14q-18 0 -49.5 3t-65.5 7t-67 11t-57 18q-18 6 -22.5 17t-0.5 28z" />
<glyph unicode="&#xb4;" horiz-adv-x="1017" d="M508 1161l143 293q8 18 35 6l94 -41q14 -6 12.5 -15t-6.5 -15l-182 -271q-10 -14 -31 -6l-59 21q-16 6 -6 28z" />
<glyph unicode="&#xb6;" horiz-adv-x="956" d="M39 948q0 199 104.5 305.5t280.5 106.5h457q35 0 34 -35v-74q0 -37 -34 -37h-52v-1374q0 -35 -34 -35h-70q-37 0 -37 35v1377h-207v-1377q0 -35 -35 -35h-69q-37 0 -37 35v781q-72 0 -128 29.5t-94 77.5t-58.5 106.5t-20.5 113.5z" />
<glyph unicode="&#xb7;" horiz-adv-x="399" d="M106 518q0 41 17.5 67.5t75.5 26.5q59 0 76.5 -25.5t17.5 -68.5q0 -41 -17.5 -69.5t-76.5 -28.5q-61 0 -77 29.5t-16 68.5z" />
<glyph unicode="&#xb8;" horiz-adv-x="870" d="M311 -342l11 39q2 6 6 9t16 1q29 -4 61.5 -7t55.5 -3q43 0 75.5 12.5t32.5 61.5q0 39 -27.5 51t-103.5 16q-43 4 -26 45l49 137q0 2 4 7.5t12 5.5h51q8 0 9.5 -5t-0.5 -10l-41 -108q57 -2 93 -13.5t56.5 -30t28.5 -42t8 -49.5q0 -82 -56.5 -121t-156.5 -39q-27 0 -69 5 t-74 15q-18 8 -15 23z" />
<glyph unicode="&#xb9;" horiz-adv-x="634" d="M86 1425v29q0 12 4 22.5t21 14.5l122 41q10 4 24.5 7t31.5 3h55q31 0 36 -10t5 -25v-708h131q14 0 23.5 -6.5t9.5 -26.5v-49q0 -20 -9.5 -26.5t-23.5 -6.5h-385q-16 0 -24.5 6t-8.5 27v49q0 20 8.5 26.5t24.5 6.5h119v598h-129q-18 0 -26.5 4t-8.5 24z" />
<glyph unicode="&#xba;" horiz-adv-x="710" d="M59 842q0 49 8.5 106.5t38 107.5t87 84t157.5 34q98 0 157.5 -29t91.5 -76t42 -106.5t10 -120.5q0 -59 -7 -123t-36.5 -115t-90 -84t-167.5 -33q-104 0 -162.5 33t-87 84t-35 114.5t-6.5 123.5zM186 831q0 -117 32 -173t132 -56q106 0 139 56t33 173q0 57 -7 100.5 t-25.5 72t-52.5 43t-87 14.5q-100 0 -132 -56.5t-32 -173.5z" />
<glyph unicode="&#xbb;" horiz-adv-x="862" d="M72 73q-2 7 4 15l237 289l-227 285q-4 8 -3 18t17 10h107q20 0 30.5 -10t20.5 -21l201 -253q16 -18 13 -33t-11 -25l-207 -256q-8 -10 -19.5 -18t-27.5 -8h-123q-10 0 -12 7zM391 73q-2 7 4 15l238 289l-225 285q-6 8 -5.5 18t15.5 10h110q18 0 28.5 -10t21.5 -21 l200 -253q16 -20 14.5 -34t-12.5 -24l-205 -256q-10 -10 -21 -18t-28 -8h-123q-10 0 -12 7z" />
<glyph unicode="&#xbc;" horiz-adv-x="1679" d="M160 1241v29q0 12 4 22.5t20 14.5l123 41q10 4 24.5 7t30.5 3h56q31 0 36 -10.5t5 -24.5v-709h131q14 0 23.5 -6t9.5 -26v-50q0 -20 -9.5 -26t-23.5 -6h-385q-16 0 -24.5 6t-8.5 26v50q0 20 8 26t25 6h119v598h-129q-18 0 -26.5 4.5t-8.5 24.5zM487 -16l566 1423 q6 14 12 20.5t20 6.5h66q27 0 16 -31l-563 -1426q-10 -25 -31 -24h-65q-31 0 -21 31zM817 256v49q0 27 17 45l432 486q10 12 18 17t31 5h51q33 0 33 -29v-483h88q33 0 33 -35v-55q0 -31 -33 -31h-88v-188q0 -23 -9.5 -29t-25.5 -6h-64q-16 0 -24 6t-8 27v190h-416 q-35 0 -35 31zM993 346h275v318z" />
<glyph unicode="&#xbd;" horiz-adv-x="1679" d="M152 1241v29q0 12 4 22.5t20 14.5l123 41q10 4 24.5 7t30.5 3h56q31 0 36 -10.5t5 -24.5v-709h131q14 0 23 -6t9 -26v-50q0 -20 -9 -26t-23 -6h-385q-16 0 -24.5 6t-8.5 26v50q0 20 8 26t25 6h118v598h-129q-18 0 -26 4.5t-8 24.5zM440 -16l566 1423q6 14 12 20.5t20 6.5 h66q27 0 16 -31l-563 -1426q-10 -25 -31 -24h-65q-31 0 -21 31zM926 33v45q0 23 8 35t14 18l340 322q37 37 64.5 78.5t27.5 89.5q0 29 -5 51t-23.5 38.5t-53 25.5t-92.5 9q-55 0 -116.5 -4t-102.5 -8q-33 -4 -39 21l-8 34q-4 14 0 26.5t27 21.5q25 8 58.5 14t67 9t63.5 5 t50 2q168 0 235.5 -63.5t67.5 -167.5q0 -80 -26.5 -136.5t-93.5 -121.5l-277 -262h381q16 0 25.5 -6.5t9.5 -26.5v-49q0 -33 -35 -33h-535q-16 0 -24 6t-8 27z" />
<glyph unicode="&#xbe;" horiz-adv-x="1679" d="M94 573l6 29q4 12 11.5 21.5t27.5 5.5q47 -8 105.5 -14.5t117.5 -6.5q41 0 79 6.5t68 27t47 59t17 102.5q0 47 -36.5 69.5t-85.5 30.5l-156 23q-37 6 -37 45v37q0 23 18 41l213 192h-348q-16 0 -25.5 6t-9.5 25v53q0 33 33 33h492q23 0 31 -11.5t8 -21.5v-51 q0 -33 -35 -62l-197 -180l74 -10q92 -14 142.5 -64.5t50.5 -150.5q0 -96 -25 -157.5t-70 -96.5t-109.5 -49.5t-144.5 -14.5q-18 0 -50 3.5t-65.5 7.5t-66.5 11t-57 17q-18 6 -22.5 17.5t-0.5 27.5zM530 -16l566 1423q6 14 12 20.5t20 6.5h66q27 0 16 -31l-563 -1426 q-10 -25 -31 -24h-65q-31 0 -21 31zM885 256v49q0 27 16 45l432 486q10 12 18.5 17t30.5 5h52q33 0 32 -29v-483h88q33 0 33 -35v-55q0 -31 -33 -31h-88v-188q0 -23 -9 -29t-25 -6h-64q-16 0 -24.5 6t-8.5 27v190h-415q-35 0 -35 31zM1061 346h274v318z" />
<glyph unicode="&#xbf;" horiz-adv-x="720" d="M23 -86q0 53 14 93t37.5 72t53.5 55.5t58 45.5q43 33 79 63.5t62.5 66.5t41 80t14.5 99v55.5t-2 59.5q0 35 27 35h77q16 0 22.5 -7t10.5 -24q6 -39 7 -76.5t1 -62.5q0 -70 -20.5 -125t-55 -102t-79.5 -88t-95 -80q-45 -35 -74.5 -66t-29.5 -84q0 -96 56.5 -135t181.5 -39 q51 0 110.5 5t110.5 9q20 2 27.5 -6t11.5 -18l10 -55q4 -16 0 -26.5t-27 -18.5q-63 -25 -126.5 -32t-123.5 -7q-193 0 -286.5 81.5t-93.5 231.5zM342 899q0 41 17.5 69.5t76.5 28.5q63 0 78.5 -28.5t15.5 -69.5t-18 -67.5t-76 -26.5q-59 0 -76.5 26.5t-17.5 67.5z" />
<glyph unicode="&#xc0;" horiz-adv-x="1122" d="M33 33l428 1292q8 31 39 31h114q20 0 27.5 -8.5t11.5 -22.5l428 -1296q6 -29 -16 -29h-125q-16 0 -23.5 6t-11.5 21l-100 335h-500l-106 -329q-6 -20 -16.5 -26.5t-26.5 -6.5h-107q-29 0 -16 33zM298 1604.5q-7 7.5 3 19.5l59 82q18 23 33 10l262 -194q20 -14 9 -27 l-37 -49q-14 -14 -31 -6l-285 153q-6 4 -13 11.5zM352 508h408l-103 342l-98 332h-6l-96 -326z" />
<glyph unicode="&#xc1;" horiz-adv-x="1122" d="M33 33l428 1292q8 31 39 31h114q20 0 27.5 -8.5t11.5 -22.5l428 -1296q6 -29 -16 -29h-125q-16 0 -23.5 6t-11.5 21l-100 335h-500l-106 -329q-6 -20 -16.5 -26.5t-26.5 -6.5h-107q-29 0 -16 33zM352 508h408l-103 342l-98 332h-6l-96 -326zM489 1493q-12 12 9 27 l262 194q14 12 33 -10l65 -80q10 -12 3 -19.5t-13 -11.5l-285 -153q-16 -8 -31 6z" />
<glyph unicode="&#xc2;" horiz-adv-x="1122" d="M33 33l428 1292q8 31 39 31h114q20 0 27.5 -8.5t11.5 -22.5l428 -1296q6 -29 -16 -29h-125q-16 0 -23.5 6t-11.5 21l-100 335h-500l-106 -329q-6 -20 -16.5 -26.5t-26.5 -6.5h-107q-29 0 -16 33zM242 1473q-12 12 0 26l211 199q16 12 27.5 17t27.5 5h96q23 0 35 -5 t25 -15l204 -193q20 -18 2 -32l-39 -37q-16 -12 -32 -2l-244 172l-238 -174q-14 -10 -20 -11.5t-16 9.5zM352 508h408l-103 342l-98 332h-6l-96 -326z" />
<glyph unicode="&#xc3;" horiz-adv-x="1122" d="M33 33l428 1292q8 31 39 31h114q20 0 27.5 -8.5t11.5 -22.5l428 -1296q6 -29 -16 -29h-125q-16 0 -23.5 6t-11.5 21l-100 335h-500l-106 -329q-6 -20 -16.5 -26.5t-26.5 -6.5h-107q-29 0 -16 33zM233.5 1482.5q-0.5 10.5 4.5 18.5q33 94 84 128t96 34q37 0 73.5 -12.5 t71.5 -26.5t68 -26.5t61 -12.5q35 0 53.5 18.5t40.5 57.5q4 8 10.5 14t20.5 0l45 -16q14 -4 13 -15.5t-3 -17.5q-25 -88 -70 -127t-104 -39q-31 0 -68.5 12.5t-74.5 25.5t-73 25.5t-62 12.5q-8 0 -19.5 -1t-25 -8t-28.5 -22.5t-30 -44.5q-4 -10 -9 -13t-21 5l-41 16 q-12 4 -12.5 14.5zM352 508h408l-103 342l-98 332h-6l-96 -326z" />
<glyph unicode="&#xc4;" horiz-adv-x="1122" d="M33 33l428 1292q8 31 39 31h114q20 0 27.5 -8.5t11.5 -22.5l428 -1296q6 -29 -16 -29h-125q-16 0 -23.5 6t-11.5 21l-100 335h-500l-106 -329q-6 -20 -16.5 -26.5t-26.5 -6.5h-107q-29 0 -16 33zM295 1552q0 35 15.5 59.5t68.5 24.5t68.5 -22.5t15.5 -61.5 q0 -37 -15.5 -62.5t-68.5 -25.5q-57 0 -70.5 27t-13.5 61zM352 508h408l-103 342l-98 332h-6l-96 -326zM647 1552q0 35 15.5 59.5t68.5 24.5t68.5 -22.5t15.5 -61.5q0 -37 -15.5 -62.5t-68.5 -25.5q-57 0 -70.5 27t-13.5 61z" />
<glyph unicode="&#xc5;" horiz-adv-x="1122" d="M33 33l428 1292q8 31 39 31h114q20 0 27.5 -8.5t11.5 -22.5l428 -1296q6 -29 -16 -29h-125q-16 0 -23.5 6t-11.5 21l-100 335h-500l-106 -329q-6 -20 -16.5 -26.5t-26.5 -6.5h-107q-29 0 -16 33zM348 1583q0 43 17.5 80t45 62.5t64.5 41t78 15.5q43 0 79 -16.5t63.5 -43 t43 -63.5t15.5 -76q0 -41 -15.5 -77t-43 -62.5t-63.5 -43t-79 -16.5q-41 0 -78 15.5t-64.5 41t-45 62.5t-17.5 80zM352 508h408l-103 342l-98 332h-6l-96 -326zM455 1583q0 -45 26.5 -74.5t71.5 -29.5q43 0 71.5 29.5t28.5 74.5q0 41 -28.5 73t-71.5 32q-41 0 -69.5 -32 t-28.5 -73z" />
<glyph unicode="&#xc6;" horiz-adv-x="1802" d="M20.5 5q-6.5 5 4.5 24l796 1298q16 31 49 31h793q35 0 35 -33v-80q0 -35 -37 -35h-582v-432h523q35 0 34 -33v-79q0 -33 -34 -33h-523v-488h598q33 0 33 -34v-78q0 -20 -8 -26.5t-27 -6.5h-719q-27 0 -31.5 6t-4.5 21v335h-504l-203 -329q-14 -20 -26.5 -26.5t-28.5 -6.5 h-117q-14 0 -20.5 5zM506 508h414v694h-7z" />
<glyph unicode="&#xc7;" horiz-adv-x="1101" d="M133 664q0 135 19.5 263t75 226t157.5 158.5t268 60.5q31 0 76 -2t96.5 -8t102.5 -16.5t92 -26.5q23 -10 27 -20.5t0 -24.5l-13 -57q-4 -10 -11 -18.5t-28 -4.5q-68 10 -159 19.5t-183 9.5q-119 0 -188.5 -45t-106 -122t-47 -178.5t-10.5 -213.5q0 -102 12.5 -198.5 t50 -170.5t107.5 -118t182 -44q94 0 180.5 9.5t159.5 19.5q23 4 30 -5.5t11 -19.5l10 -53q4 -16 1 -26.5t-23 -18.5q-37 -16 -88 -26.5t-103.5 -16.5t-99.5 -9t-78 -3q-6 0 -13 1t-13 1l-27 -76q57 -2 93 -13.5t56.5 -30t28.5 -42t8 -49.5q0 -82 -56 -121t-157 -39 q-27 0 -68.5 5t-74.5 15q-18 8 -14 23l10 39q2 6 6 9t17 1q29 -4 61.5 -7t54.5 -3q43 0 76 12.5t33 61.5q0 39 -28 51t-103 16q-43 4 -27 45l37 107q-129 18 -211 79.5t-128 152.5t-63.5 205t-17.5 237z" />
<glyph unicode="&#xc8;" horiz-adv-x="1034" d="M152 33v1290q0 35 36 35h707q35 0 35 -33v-80q0 -35 -37 -35h-582v-432h523q35 0 34 -33v-79q0 -33 -34 -33h-523v-488h598q33 0 33 -34v-78q0 -20 -8 -26.5t-27 -6.5h-719q-37 0 -36 33zM236.5 1604.5q-7.5 7.5 3.5 19.5l65 80q18 23 33 10l262 -194q20 -14 8 -27 l-43 -47q-14 -14 -30 -6l-285 153q-6 4 -13.5 11.5z" />
<glyph unicode="&#xc9;" horiz-adv-x="1034" d="M152 33v1290q0 35 36 35h707q35 0 35 -33v-80q0 -35 -37 -35h-582v-432h523q35 0 34 -33v-79q0 -33 -34 -33h-523v-488h598q33 0 33 -34v-78q0 -20 -8 -26.5t-27 -6.5h-719q-37 0 -36 33zM449 1493q-12 12 8 27l262 194q14 12 33 -10l65 -80q10 -12 3 -19.5t-13 -11.5 l-285 -153q-16 -8 -30 6z" />
<glyph unicode="&#xca;" horiz-adv-x="1034" d="M152 33v1290q0 35 36 35h707q35 0 35 -33v-80q0 -35 -37 -35h-582v-432h523q35 0 34 -33v-79q0 -33 -34 -33h-523v-488h598q33 0 33 -34v-78q0 -20 -8 -26.5t-27 -6.5h-719q-37 0 -36 33zM227 1473q-12 12 0 26l211 199q16 12 27.5 17t28.5 5h96q23 0 35 -5t24 -15 l205 -193q20 -18 2 -32l-39 -37q-16 -12 -33 -2l-243 172l-238 -174q-14 -10 -20.5 -11.5t-16.5 9.5z" />
<glyph unicode="&#xcb;" horiz-adv-x="1034" d="M152 33v1290q0 35 36 35h707q35 0 35 -33v-80q0 -35 -37 -35h-582v-432h523q35 0 34 -33v-79q0 -33 -34 -33h-523v-488h598q33 0 33 -34v-78q0 -20 -8 -26.5t-27 -6.5h-719q-37 0 -36 33zM281 1552q0 35 15 59.5t69 24.5q53 0 68.5 -22.5t15.5 -61.5q0 -37 -15.5 -62.5 t-68.5 -25.5q-57 0 -70.5 27t-13.5 61zM633 1552q0 35 15.5 59.5t68.5 24.5t68.5 -22.5t15.5 -61.5q0 -37 -15.5 -62.5t-68.5 -25.5q-57 0 -70.5 27t-13.5 61z" />
<glyph unicode="&#xcc;" horiz-adv-x="520" d="M-60.5 1604.5q-7.5 7.5 3.5 19.5l65 80q18 23 33 10l262 -194q20 -14 8 -27l-43 -47q-14 -14 -30 -6l-285 153q-6 4 -13.5 11.5zM176 35v1286q0 23 9.5 30t27.5 7h90q16 0 25.5 -7.5t9.5 -29.5v-1286q0 -35 -35 -35h-90q-37 0 -37 35z" />
<glyph unicode="&#xcd;" horiz-adv-x="520" d="M176 35v1286q0 23 9.5 30t27.5 7h90q16 0 25.5 -7.5t9.5 -29.5v-1286q0 -35 -35 -35h-90q-37 0 -37 35zM197 1493q-12 12 8 27l262 194q14 12 33 -10l65 -80q10 -12 3 -19.5t-13 -11.5l-285 -153q-16 -8 -30 6z" />
<glyph unicode="&#xce;" horiz-adv-x="520" d="M-51 1473q-12 12 0 26l211 199q16 12 27.5 17t27.5 5h96q23 0 35 -5t25 -15l204 -193q20 -18 3 -32l-39 -37q-16 -12 -33 -2l-244 172l-237 -174q-14 -10 -20.5 -11.5t-16.5 9.5zM176 35v1286q0 23 9.5 30t27.5 7h90q16 0 25.5 -7.5t9.5 -29.5v-1286q0 -35 -35 -35h-90 q-37 0 -37 35z" />
<glyph unicode="&#xcf;" horiz-adv-x="520" d="M-6 1552q0 35 15.5 59.5t68.5 24.5t68.5 -22.5t15.5 -61.5q0 -37 -15.5 -62.5t-68.5 -25.5q-57 0 -70.5 27t-13.5 61zM176 35v1286q0 23 9.5 30t27.5 7h90q16 0 25.5 -7.5t9.5 -29.5v-1286q0 -35 -35 -35h-90q-37 0 -37 35zM346 1552q0 35 15.5 59.5t68.5 24.5 t68.5 -22.5t15.5 -61.5q0 -37 -15.5 -62.5t-68.5 -25.5q-57 0 -70.5 27t-13.5 61z" />
<glyph unicode="&#xd0;" horiz-adv-x="1263" d="M-2 649v78q0 16 7 21.5t22 5.5h129v569q0 33 37 33h389q164 0 270 -52.5t167.5 -143.5t86 -214t24.5 -264t-23.5 -265t-84.5 -217.5t-167.5 -146.5t-272.5 -53h-383q-25 0 -34 8t-9 27v590h-129q-29 0 -29 24zM315 147h252q70 0 139.5 17.5t127 72t93.5 157t36 272.5 q0 172 -32 278.5t-85 165.5t-122 79.5t-142 20.5h-267v-456h228q14 0 21 -5.5t7 -21.5v-78q0 -25 -28 -24h-228v-478z" />
<glyph unicode="&#xd1;" horiz-adv-x="1288" d="M147 35v1292q0 31 33 31h84q23 0 32 -9.5t19 -23.5l555 -856l109 -172h6v1024q0 23 8 30t27 7h86q16 0 24.5 -7.5t8.5 -29.5v-1288q0 -33 -33 -33h-78q-23 0 -33 8t-20 25l-547 844l-119 194h-6v-1036q0 -35 -35 -35h-84q-37 0 -37 35zM324 1474.5q0 10.5 4 18.5 q35 94 91 131t103 37q39 0 80 -16.5t81 -37t77 -37t67 -16.5q35 0 56.5 18.5t44.5 57.5q4 8 11 14.5t24 0.5l43 -15q14 -4 13 -15t-3 -18q-56 -176 -189 -176q-35 0 -75.5 17.5t-82.5 37t-81 37t-70 17.5q-16 0 -45 -12.5t-61 -65.5q-4 -10 -11.5 -13t-23.5 5l-41 16 q-12 4 -12 14.5z" />
<glyph unicode="&#xd2;" horiz-adv-x="1306" d="M127 698q0 63 6 138t24.5 150t54.5 145.5t93 124t142 86t202 32.5q174 0 279.5 -59.5t161 -154.5t73 -216t17.5 -246q0 -121 -14.5 -247.5t-69 -231t-161 -171t-288.5 -66.5q-121 0 -206 30.5t-142 82.5t-91 123t-52.5 151t-23.5 163.5t-5 165.5zM291 678 q0 -125 15.5 -226.5t55 -174t108.5 -112.5t177 -40q111 0 182.5 38t114.5 108.5t59.5 174t16.5 232.5q0 133 -17.5 237.5t-60.5 175t-114.5 107.5t-180.5 37q-102 0 -170.5 -39t-109.5 -111.5t-58.5 -175t-17.5 -231.5zM458 1604.5q-7 7.5 3 19.5l65 80q18 23 33 10 l262 -194q20 -14 8 -27l-43 -47q-14 -14 -30 -6l-285 153q-6 4 -13 11.5z" />
<glyph unicode="&#xd3;" horiz-adv-x="1306" d="M127 698q0 63 6 138t24.5 150t54.5 145.5t93 124t142 86t202 32.5q174 0 279.5 -59.5t161 -154.5t73 -216t17.5 -246q0 -121 -14.5 -247.5t-69 -231t-161 -171t-288.5 -66.5q-121 0 -206 30.5t-142 82.5t-91 123t-52.5 151t-23.5 163.5t-5 165.5zM291 678 q0 -125 15.5 -226.5t55 -174t108.5 -112.5t177 -40q111 0 182.5 38t114.5 108.5t59.5 174t16.5 232.5q0 133 -17.5 237.5t-60.5 175t-114.5 107.5t-180.5 37q-102 0 -170.5 -39t-109.5 -111.5t-58.5 -175t-17.5 -231.5zM530 1493q-12 12 9 27l262 194q14 12 33 -10l65 -80 q10 -12 3 -19.5t-13 -11.5l-285 -153q-16 -8 -31 6z" />
<glyph unicode="&#xd4;" horiz-adv-x="1306" d="M127 698q0 63 6 138t24.5 150t54.5 145.5t93 124t142 86t202 32.5q174 0 279.5 -59.5t161 -154.5t73 -216t17.5 -246q0 -121 -14.5 -247.5t-69 -231t-161 -171t-288.5 -66.5q-121 0 -206 30.5t-142 82.5t-91 123t-52.5 151t-23.5 163.5t-5 165.5zM291 678 q0 -125 15.5 -226.5t55 -174t108.5 -112.5t177 -40q111 0 182.5 38t114.5 108.5t59.5 174t16.5 232.5q0 133 -17.5 237.5t-60.5 175t-114.5 107.5t-180.5 37q-102 0 -170.5 -39t-109.5 -111.5t-58.5 -175t-17.5 -231.5zM342 1473q-12 12 0 26l211 199q16 12 27.5 17t27.5 5 h97q23 0 35 -5t24 -15l205 -193q20 -18 2 -32l-39 -37q-16 -12 -33 -2l-244 172l-237 -174q-14 -10 -20.5 -11.5t-16.5 9.5z" />
<glyph unicode="&#xd5;" horiz-adv-x="1306" d="M127 698q0 63 6 138t24.5 150t54.5 145.5t93 124t142 86t202 32.5q174 0 279.5 -59.5t161 -154.5t73 -216t17.5 -246q0 -121 -14.5 -247.5t-69 -231t-161 -171t-288.5 -66.5q-121 0 -206 30.5t-142 82.5t-91 123t-52.5 151t-23.5 163.5t-5 165.5zM291 678 q0 -125 15.5 -226.5t55 -174t108.5 -112.5t177 -40q111 0 182.5 38t114.5 108.5t59.5 174t16.5 232.5q0 133 -17.5 237.5t-60.5 175t-114.5 107.5t-180.5 37q-102 0 -170.5 -39t-109.5 -111.5t-58.5 -175t-17.5 -231.5zM328 1517.5q0 10.5 4 18.5q35 94 91 131t103 37 q39 0 80 -14.5t81 -31t77 -30.5t67 -14q35 0 56.5 18.5t44.5 57.5q4 8 11 14t24 0l43 -14q14 -4 13 -15.5t-3 -17.5q-56 -176 -189 -176q-35 0 -75.5 14t-82.5 31.5t-81 32t-70 14.5q-16 0 -44.5 -12.5t-61.5 -65.5q-4 -10 -11.5 -13t-23.5 5l-41 16q-12 4 -12 14.5z" />
<glyph unicode="&#xd6;" horiz-adv-x="1306" d="M127 698q0 63 6 138t24.5 150t54.5 145.5t93 124t142 86t202 32.5q174 0 279.5 -59.5t161 -154.5t73 -216t17.5 -246q0 -121 -14.5 -247.5t-69 -231t-161 -171t-288.5 -66.5q-121 0 -206 30.5t-142 82.5t-91 123t-52.5 151t-23.5 163.5t-5 165.5zM291 678 q0 -125 15.5 -226.5t55 -174t108.5 -112.5t177 -40q111 0 182.5 38t114.5 108.5t59.5 174t16.5 232.5q0 133 -17.5 237.5t-60.5 175t-114.5 107.5t-180.5 37q-102 0 -170.5 -39t-109.5 -111.5t-58.5 -175t-17.5 -231.5zM401 1552q0 35 15.5 59.5t68.5 24.5t68.5 -22.5 t15.5 -61.5q0 -37 -15 -62.5t-69 -25.5q-57 0 -70.5 27t-13.5 61zM754 1552q0 35 15 59.5t69 24.5q53 0 68.5 -22.5t15.5 -61.5q0 -37 -15.5 -62.5t-68.5 -25.5q-57 0 -70.5 27t-13.5 61z" />
<glyph unicode="&#xd7;" d="M205 389q2 8 12 19l264 264l-260 262q-20 16 -2 35l51 51q12 12 19.5 11t17.5 -11l260 -260l254 252q10 10 18.5 12t20.5 -10l60 -60q18 -16 -2 -36l-254 -254l256 -254q10 -12 12 -20.5t-10 -20.5l-52 -52q-18 -18 -39 5l-253 256l-267 -267q-8 -8 -17 -10t-20 8l-59 60 q-12 12 -10 20z" />
<glyph unicode="&#xd8;" horiz-adv-x="1306" d="M127 698q0 63 6 138t24.5 150t54.5 145.5t93 124t142 86t202 32.5q129 0 218 -32.5t149 -88.5l74 101q6 10 13 17t21 -3l47 -33q20 -12 5 -32l-95 -129q59 -98 79 -222.5t20 -253.5q0 -121 -14.5 -247.5t-69 -231t-161 -171t-288.5 -66.5q-123 0 -210 31.5t-144 86.5 l-66 -88q-6 -10 -14 -17t-20 3l-48 33q-12 8 -12 14t10 18l86 117q-68 109 -85 246t-17 272zM291 678q0 -104 10 -192.5t37 -157.5l582 794q-43 55 -110 84t-163 29q-102 0 -170.5 -39t-109.5 -111.5t-58.5 -175t-17.5 -231.5zM389 233q41 -53 103.5 -80.5t154.5 -27.5 q111 0 182.5 38t114.5 108.5t59.5 174t16.5 232.5q0 106 -11.5 193t-35.5 155z" />
<glyph unicode="&#xd9;" horiz-adv-x="1243" d="M141 492v829q0 23 8.5 30t26.5 7h90q16 0 25.5 -7.5t9.5 -29.5v-836q0 -172 80 -263t242 -91q158 0 241.5 86t83.5 268v836q0 23 9.5 30t27.5 7h88q16 0 24.5 -7.5t8.5 -29.5l-2 -829q0 -66 -6 -124.5t-29 -115.5q-59 -143 -177 -204.5t-269 -61.5q-346 0 -443 262 q-23 55 -31 115.5t-8 128.5zM359.5 1604.5q-7.5 7.5 2.5 19.5l66 80q18 23 33 10l262 -194q20 -14 8 -27l-43 -47q-14 -14 -31 -6l-284 153q-6 4 -13.5 11.5z" />
<glyph unicode="&#xda;" horiz-adv-x="1243" d="M141 492v829q0 23 8.5 30t26.5 7h90q16 0 25.5 -7.5t9.5 -29.5v-836q0 -172 80 -263t242 -91q158 0 241.5 86t83.5 268v836q0 23 9.5 30t27.5 7h88q16 0 24.5 -7.5t8.5 -29.5l-2 -829q0 -66 -6 -124.5t-29 -115.5q-59 -143 -177 -204.5t-269 -61.5q-346 0 -443 262 q-23 55 -31 115.5t-8 128.5zM512 1493q-12 12 8 27l262 194q14 12 33 -10l66 -80q10 -12 3 -19.5t-14 -11.5l-284 -153q-16 -8 -31 6z" />
<glyph unicode="&#xdb;" horiz-adv-x="1243" d="M141 492v829q0 23 8.5 30t26.5 7h90q16 0 25.5 -7.5t9.5 -29.5v-836q0 -172 80 -263t242 -91q158 0 241.5 86t83.5 268v836q0 23 9.5 30t27.5 7h88q16 0 24.5 -7.5t8.5 -29.5l-2 -829q0 -66 -6 -124.5t-29 -115.5q-59 -143 -177 -204.5t-269 -61.5q-346 0 -443 262 q-23 55 -31 115.5t-8 128.5zM315 1473q-12 12 0 26l211 199q16 12 27.5 17t28.5 5h96q23 0 35 -5t24 -15l205 -193q20 -18 2 -32l-39 -37q-16 -12 -33 -2l-243 172l-238 -174q-14 -10 -20 -11.5t-17 9.5z" />
<glyph unicode="&#xdc;" horiz-adv-x="1243" d="M141 492v829q0 23 8.5 30t26.5 7h90q16 0 25.5 -7.5t9.5 -29.5v-836q0 -172 80 -263t242 -91q158 0 241.5 86t83.5 268v836q0 23 9.5 30t27.5 7h88q16 0 24.5 -7.5t8.5 -29.5l-2 -829q0 -66 -6 -124.5t-29 -115.5q-59 -143 -177 -204.5t-269 -61.5q-346 0 -443 262 q-23 55 -31 115.5t-8 128.5zM358 1552q0 35 15.5 59.5t68.5 24.5t68.5 -22.5t15.5 -61.5q0 -37 -15 -62.5t-69 -25.5q-57 0 -70.5 27t-13.5 61zM711 1552q0 35 15 59.5t69 24.5q53 0 68.5 -22.5t15.5 -61.5q0 -37 -15.5 -62.5t-68.5 -25.5q-57 0 -70.5 27t-13.5 61z" />
<glyph unicode="&#xdd;" horiz-adv-x="1038" d="M35 1329q-4 10 0 18.5t16 8.5h121q18 0 25.5 -6.5t13.5 -18.5l190 -358l113 -211h12l121 219l191 350q8 14 16 19.5t27 5.5h106q33 0 19 -31l-408 -719v-571q0 -35 -33 -35h-86q-37 0 -37 35v571zM434 1493q-12 12 8 27l263 194q14 12 32 -10l66 -80q10 -12 3 -19.5 t-13 -11.5l-285 -153q-16 -8 -31 6z" />
<glyph unicode="&#xde;" horiz-adv-x="1040" d="M133 35v1288q0 35 35 35h88q37 0 37 -35v-238h266q86 0 163 -24.5t134 -73.5t91 -123t34 -172q0 -70 -21.5 -142.5t-70.5 -133t-129 -98t-199 -37.5h-268v-246q0 -35 -35 -35h-88q-37 0 -37 35zM293 422h272q78 0 128 22.5t79 60.5t40 86t11 99q0 129 -75.5 190.5 t-200.5 61.5h-254v-520z" />
<glyph unicode="&#xdf;" horiz-adv-x="1032" d="M109 25v1024q0 111 34.5 187.5t90 125.5t122 70.5t125.5 21.5q82 0 150.5 -21.5t119 -64.5t78 -107.5t27.5 -150.5q0 -27 -8 -61.5t-24.5 -71.5t-42 -70t-62.5 -57q74 -20 117 -61t64.5 -97.5t27.5 -125t6 -142.5q0 -203 -94.5 -320.5t-284.5 -117.5q-29 0 -67.5 3 t-67.5 13q-31 8 -25 35l11 59q2 14 10 21.5t39 3.5q16 -2 33.5 -2h33.5q137 0 192.5 82t55.5 229q0 90 -13.5 149.5t-45 95.5t-84 53t-127.5 22q-25 0 -25 24v62q0 31 33 38q39 8 73.5 32t59.5 56.5t39 71.5t14 80q0 98 -57 148.5t-154 50.5q-96 0 -157.5 -62.5 t-61.5 -185.5v-1038q0 -37 -37 -37h-86q-33 0 -32 35z" />
<glyph unicode="&#xe0;" horiz-adv-x="1052" d="M90 266q0 174 88 259t293 85h283v70q0 113 -52.5 156t-187.5 43q-29 0 -64.5 -1t-74.5 -4.5t-78 -6.5t-72 -7q-35 -6 -41 19l-12 53q-4 14 3 24.5t30 20.5q31 10 74 18.5t90 13.5t93 7t83 2q123 0 195.5 -26.5t110.5 -74t48 -115t10 -149.5v-452q0 -31 3 -47.5 t10.5 -24.5t21.5 -11t39 -5q35 -2 35 -27v-51q0 -14 -8.5 -23.5t-32.5 -13.5q-37 -6 -72 -6q-72 0 -105.5 26.5t-43.5 92.5h-4q-76 -45 -169.5 -86t-215.5 -41q-150 0 -213.5 71.5t-63.5 210.5zM248 272q0 -86 33.5 -116.5t124.5 -30.5q39 0 85 10t93 27.5t91 38t79 41.5 v239h-301q-94 0 -149.5 -43t-55.5 -166zM340 1404q-2 9 12 15l94 41q27 12 35 -6l144 -293q10 -23 -7 -28l-59 -27q-20 -8 -31 6l-182 277q-4 6 -6 15z" />
<glyph unicode="&#xe1;" horiz-adv-x="1052" d="M90 266q0 174 88 259t293 85h283v70q0 113 -52.5 156t-187.5 43q-29 0 -64.5 -1t-74.5 -4.5t-78 -6.5t-72 -7q-35 -6 -41 19l-12 53q-4 14 3 24.5t30 20.5q31 10 74 18.5t90 13.5t93 7t83 2q123 0 195.5 -26.5t110.5 -74t48 -115t10 -149.5v-452q0 -31 3 -47.5 t10.5 -24.5t21.5 -11t39 -5q35 -2 35 -27v-51q0 -14 -8.5 -23.5t-32.5 -13.5q-37 -6 -72 -6q-72 0 -105.5 26.5t-43.5 92.5h-4q-76 -45 -169.5 -86t-215.5 -41q-150 0 -213.5 71.5t-63.5 210.5zM248 272q0 -86 33.5 -116.5t124.5 -30.5q39 0 85 10t93 27.5t91 38t79 41.5 v239h-301q-94 0 -149.5 -43t-55.5 -166zM508 1161l143 293q8 18 35 6l94 -41q14 -6 12.5 -15t-6.5 -15l-182 -271q-10 -14 -31 -6l-59 21q-16 6 -6 28z" />
<glyph unicode="&#xe2;" horiz-adv-x="1052" d="M90 266q0 174 88 259t293 85h283v70q0 113 -52.5 156t-187.5 43q-29 0 -64.5 -1t-74.5 -4.5t-78 -6.5t-72 -7q-35 -6 -41 19l-12 53q-4 14 3 24.5t30 20.5q31 10 74 18.5t90 13.5t93 7t83 2q123 0 195.5 -26.5t110.5 -74t48 -115t10 -149.5v-452q0 -31 3 -47.5 t10.5 -24.5t21.5 -11t39 -5q35 -2 35 -27v-51q0 -14 -8.5 -23.5t-32.5 -13.5q-37 -6 -72 -6q-72 0 -105.5 26.5t-43.5 92.5h-4q-76 -45 -169.5 -86t-215.5 -41q-150 0 -213.5 71.5t-63.5 210.5zM236 1147q-14 10 0 27l192 243q10 14 21.5 18.5t33.5 4.5h97q29 0 40 -5 t19 -16l188 -243q16 -20 2 -33l-43 -33q-20 -16 -32 -2l-224 219l-215 -215q-10 -12 -18 -12t-18 10zM248 272q0 -86 33.5 -116.5t124.5 -30.5q39 0 85 10t93 27.5t91 38t79 41.5v239h-301q-94 0 -149.5 -43t-55.5 -166z" />
<glyph unicode="&#xe3;" horiz-adv-x="1052" d="M90 266q0 174 88 259t293 85h283v70q0 113 -52.5 156t-187.5 43q-29 0 -64.5 -1t-74.5 -4.5t-78 -6.5t-72 -7q-35 -6 -41 19l-12 53q-4 14 3 24.5t30 20.5q31 10 74 18.5t90 13.5t93 7t83 2q123 0 195.5 -26.5t110.5 -74t48 -115t10 -149.5v-452q0 -31 3 -47.5 t10.5 -24.5t21.5 -11t39 -5q35 -2 35 -27v-51q0 -14 -8.5 -23.5t-32.5 -13.5q-37 -6 -72 -6q-72 0 -105.5 26.5t-43.5 92.5h-4q-76 -45 -169.5 -86t-215.5 -41q-150 0 -213.5 71.5t-63.5 210.5zM186.5 1181.5q-0.5 10.5 3.5 18.5q35 94 91.5 131t103.5 37q39 0 80 -16.5 t81 -37t76.5 -36.5t67.5 -16q35 0 56.5 18t44.5 57q4 8 11 14.5t23 0.5l43 -15q14 -4 13.5 -15t-2.5 -17q-56 -177 -189 -177q-35 0 -76 17.5t-83 37t-80.5 37t-69.5 17.5q-16 0 -45 -12.5t-62 -65.5q-4 -10 -11 -13t-23 5l-41 16q-12 4 -12.5 14.5zM248 272 q0 -86 33.5 -116.5t124.5 -30.5q39 0 85 10t93 27.5t91 38t79 41.5v239h-301q-94 0 -149.5 -43t-55.5 -166z" />
<glyph unicode="&#xe4;" horiz-adv-x="1052" d="M90 266q0 174 88 259t293 85h283v70q0 113 -52.5 156t-187.5 43q-29 0 -64.5 -1t-74.5 -4.5t-78 -6.5t-72 -7q-35 -6 -41 19l-12 53q-4 14 3 24.5t30 20.5q31 10 74 18.5t90 13.5t93 7t83 2q123 0 195.5 -26.5t110.5 -74t48 -115t10 -149.5v-452q0 -31 3 -47.5 t10.5 -24.5t21.5 -11t39 -5q35 -2 35 -27v-51q0 -14 -8.5 -23.5t-32.5 -13.5q-37 -6 -72 -6q-72 0 -105.5 26.5t-43.5 92.5h-4q-76 -45 -169.5 -86t-215.5 -41q-150 0 -213.5 71.5t-63.5 210.5zM248 272q0 -86 33.5 -116.5t124.5 -30.5q39 0 85 10t93 27.5t91 38t79 41.5 v239h-301q-94 0 -149.5 -43t-55.5 -166zM283 1249q0 35 16 59.5t70 24.5q53 0 68.5 -23.5t15.5 -60.5t-15.5 -63.5t-68.5 -26.5q-57 0 -71.5 27.5t-14.5 62.5zM659 1249q0 35 16.5 59.5t67.5 24.5q53 0 69.5 -23.5t16.5 -60.5t-16 -63.5t-70 -26.5q-55 0 -69.5 27.5 t-14.5 62.5z" />
<glyph unicode="&#xe5;" horiz-adv-x="1052" d="M90 266q0 174 88 259t293 85h283v70q0 113 -52.5 156t-187.5 43q-29 0 -64.5 -1t-74.5 -4.5t-78 -6.5t-72 -7q-35 -6 -41 19l-12 53q-4 14 3 24.5t30 20.5q31 10 74 18.5t90 13.5t93 7t83 2q123 0 195.5 -26.5t110.5 -74t48 -115t10 -149.5v-452q0 -31 3 -47.5 t10.5 -24.5t21.5 -11t39 -5q35 -2 35 -27v-51q0 -14 -8.5 -23.5t-32.5 -13.5q-37 -6 -72 -6q-72 0 -105.5 26.5t-43.5 92.5h-4q-76 -45 -169.5 -86t-215.5 -41q-150 0 -213.5 71.5t-63.5 210.5zM248 272q0 -86 33.5 -116.5t124.5 -30.5q39 0 85 10t93 27.5t91 38t79 41.5 v239h-301q-94 0 -149.5 -43t-55.5 -166zM338 1262q0 43 17.5 79.5t45 62.5t64.5 41t78 15q43 0 78.5 -16.5t63.5 -43t43 -63.5t15 -75q0 -41 -15 -77t-43 -62.5t-63.5 -43t-78.5 -16.5q-41 0 -78 15.5t-64.5 41t-45 62.5t-17.5 80zM444 1262q0 -45 27 -75t72 -30 q43 0 71.5 30t28.5 75q0 41 -28.5 72.5t-71.5 31.5q-41 0 -70 -31.5t-29 -72.5z" />
<glyph unicode="&#xe6;" horiz-adv-x="1634" d="M90 266q0 160 88 237t293 77h283v100q0 113 -52.5 156t-187.5 43q-29 0 -64.5 -1t-74.5 -4.5t-78 -6.5t-72 -7q-39 -6 -41 19l-12 53q-2 14 4 24.5t29 20.5q31 10 74 18.5t90 13.5t93 7t83 2q133 0 207.5 -31t109.5 -84q47 51 122 83t190 32q131 0 212.5 -39t128 -102.5 t63.5 -145.5t21 -166q2 -49 -15 -82.5t-75 -33.5h-587q2 -92 13 -155t41 -100.5t79 -53t125 -15.5q31 0 72.5 3t84.5 6t82 7t66 9q20 2 31.5 -2.5t15.5 -24.5l8 -45q6 -29 -22 -41q-29 -12 -73 -22.5t-91 -17.5t-95.5 -11t-84.5 -4q-141 0 -224.5 42t-126.5 113 q-14 -12 -30.5 -23.5t-34.5 -21.5q-76 -43 -171 -75.5t-220 -32.5q-150 0 -213.5 71.5t-63.5 210.5zM248 272q0 -86 34 -116.5t124 -30.5q37 0 86 13.5t100 32.5t99 42t85 43q-14 53 -18 93t-4 100h-301q-94 0 -149.5 -37t-55.5 -140zM922 578h505q-4 53 -12 107t-34.5 97 t-76 70t-133.5 27q-76 0 -123 -21.5t-73.5 -60.5t-37.5 -94.5t-15 -124.5z" />
<glyph unicode="&#xe7;" horiz-adv-x="870" d="M92 506q0 98 13.5 190t57.5 164t125 115t216 43q31 0 71.5 -2t82.5 -7t83 -14.5t74 -23.5q16 -6 19.5 -18.5t1.5 -24.5l-9 -47q-4 -16 -19 -20.5t-34 -2.5q-63 6 -140 13.5t-132 7.5q-70 0 -117 -19.5t-74.5 -62.5t-40 -114t-12.5 -175q0 -113 12.5 -186.5t41 -117.5 t75.5 -62.5t115 -18.5q25 0 60.5 2t73.5 5t77 6t69 7q18 2 29.5 -2t15.5 -24l9 -43q6 -29 -23 -43q-53 -25 -134 -35t-157 -12l-26 -74q57 -2 93 -13.5t56.5 -30t28.5 -42t8 -49.5q0 -82 -56.5 -121t-156.5 -39q-27 0 -69 5t-74 15q-18 8 -15 23l11 39q2 6 6 9t16 1 q29 -4 61.5 -7t55.5 -3q43 0 75.5 12.5t32.5 61.5q0 39 -27.5 51t-103.5 16q-43 4 -26 45l37 103q-117 8 -188 52t-107.5 113.5t-49 160.5t-12.5 194z" />
<glyph unicode="&#xe8;" horiz-adv-x="1001" d="M94 498q0 74 12.5 165t55.5 169.5t125 132t223 53.5q131 0 211 -39t124 -102.5t59.5 -145.5t19.5 -166q2 -49 -15.5 -82.5t-74.5 -33.5h-578q2 -92 16.5 -155t47 -100.5t83 -53t121.5 -15.5q31 0 70 3l78 6t74.5 7t62.5 9q20 2 31.5 -2.5t15.5 -24.5l8 -45q6 -29 -22 -41 q-29 -12 -70 -22.5t-86 -17.5t-90 -11t-82 -4q-141 0 -224 44t-126 115.5t-56.5 164.5t-13.5 192zM256 578h502q0 53 -9.5 107t-36 97t-75.5 70t-131 27q-68 0 -114 -21.5t-74.5 -60.5t-43 -94.5t-18.5 -124.5zM295 1404q-2 9 12 15l94 41q27 12 35 -6l144 -293 q10 -23 -7 -28l-59 -27q-20 -8 -31 6l-182 277q-4 6 -6 15z" />
<glyph unicode="&#xe9;" horiz-adv-x="1001" d="M94 498q0 74 12.5 165t55.5 169.5t125 132t223 53.5q131 0 211 -39t124 -102.5t59.5 -145.5t19.5 -166q2 -49 -15.5 -82.5t-74.5 -33.5h-578q2 -92 16.5 -155t47 -100.5t83 -53t121.5 -15.5q31 0 70 3l78 6t74.5 7t62.5 9q20 2 31.5 -2.5t15.5 -24.5l8 -45q6 -29 -22 -41 q-29 -12 -70 -22.5t-86 -17.5t-90 -11t-82 -4q-141 0 -224 44t-126 115.5t-56.5 164.5t-13.5 192zM256 578h502q0 53 -9.5 107t-36 97t-75.5 70t-131 27q-68 0 -114 -21.5t-74.5 -60.5t-43 -94.5t-18.5 -124.5zM465 1161l143 293q8 18 35 6l94 -41q14 -6 12.5 -15t-6.5 -15 l-182 -271q-10 -14 -31 -6l-59 21q-16 6 -6 28z" />
<glyph unicode="&#xea;" horiz-adv-x="1001" d="M94 498q0 74 12.5 165t55.5 169.5t125 132t223 53.5q131 0 211 -39t124 -102.5t59.5 -145.5t19.5 -166q2 -49 -15.5 -82.5t-74.5 -33.5h-578q2 -92 16.5 -155t47 -100.5t83 -53t121.5 -15.5q31 0 70 3l78 6t74.5 7t62.5 9q20 2 31.5 -2.5t15.5 -24.5l8 -45q6 -29 -22 -41 q-29 -12 -70 -22.5t-86 -17.5t-90 -11t-82 -4q-141 0 -224 44t-126 115.5t-56.5 164.5t-13.5 192zM221 1147q-14 10 0 27l193 243q10 14 21 18.5t34 4.5h96q29 0 40 -5t20 -16l188 -243q16 -20 2 -33l-43 -33q-20 -16 -33 -2l-223 219l-215 -215q-10 -12 -18.5 -12t-18.5 10 zM256 578h502q0 53 -9.5 107t-36 97t-75.5 70t-131 27q-68 0 -114 -21.5t-74.5 -60.5t-43 -94.5t-18.5 -124.5z" />
<glyph unicode="&#xeb;" horiz-adv-x="1001" d="M94 498q0 74 12.5 165t55.5 169.5t125 132t223 53.5q131 0 211 -39t124 -102.5t59.5 -145.5t19.5 -166q2 -49 -15.5 -82.5t-74.5 -33.5h-578q2 -92 16.5 -155t47 -100.5t83 -53t121.5 -15.5q31 0 70 3l78 6t74.5 7t62.5 9q20 2 31.5 -2.5t15.5 -24.5l8 -45q6 -29 -22 -41 q-29 -12 -70 -22.5t-86 -17.5t-90 -11t-82 -4q-141 0 -224 44t-126 115.5t-56.5 164.5t-13.5 192zM246 1249q0 35 16.5 59.5t69.5 24.5t68.5 -23.5t15.5 -60.5t-15.5 -63.5t-68.5 -26.5q-57 0 -71.5 27.5t-14.5 62.5zM256 578h502q0 53 -9.5 107t-36 97t-75.5 70t-131 27 q-68 0 -114 -21.5t-74.5 -60.5t-43 -94.5t-18.5 -124.5zM623 1249q0 35 16 59.5t68 24.5q53 0 69.5 -23.5t16.5 -60.5t-16.5 -63.5t-69.5 -26.5q-55 0 -69.5 27.5t-14.5 62.5z" />
<glyph unicode="&#xec;" horiz-adv-x="456" d="M-20.5 1404q-2.5 9 12.5 15l94 41q27 12 35 -6l143 -293q10 -23 -6 -28l-59 -27q-20 -8 -31 6l-182 277q-4 6 -6.5 15zM152 35v928q0 23 9 28.5t27 5.5h84q33 0 33 -34v-928q0 -35 -33 -35h-84q-37 0 -36 35z" />
<glyph unicode="&#xed;" horiz-adv-x="409" d="M152 35v928q0 23 9 28.5t27 5.5h84q33 0 33 -34v-928q0 -35 -33 -35h-84q-37 0 -36 35zM190 1161l144 293q8 18 35 6l94 -41q14 -6 12 -15t-6 -15l-182 -271q-10 -14 -31 -6l-59 21q-16 6 -7 28z" />
<glyph unicode="&#xee;" horiz-adv-x="591" d="M0 1147q-14 10 0 27l193 243q10 14 21 18.5t34 4.5h96q29 0 40 -5t19 -16l189 -243q16 -20 2 -33l-43 -33q-20 -16 -33 -2l-223 219l-215 -215q-10 -12 -18.5 -12t-18.5 10zM221 35v928q0 23 9.5 28.5t27.5 5.5h84q33 0 33 -34v-928q0 -35 -33 -35h-84q-37 0 -37 35z" />
<glyph unicode="&#xef;" horiz-adv-x="526" d="M-10 1249q0 35 16.5 59.5t69.5 24.5t68.5 -23.5t15.5 -60.5t-15.5 -63.5t-68.5 -26.5q-57 0 -71.5 27.5t-14.5 62.5zM186 35v928q0 23 9.5 28.5t27.5 5.5h84q33 0 33 -34v-928q0 -35 -33 -35h-84q-37 0 -37 35zM367 1249q0 35 16 59.5t68 24.5q53 0 69.5 -23.5 t16.5 -60.5t-16.5 -63.5t-69.5 -26.5q-55 0 -69.5 27.5t-14.5 62.5z" />
<glyph unicode="&#xf0;" horiz-adv-x="1030" d="M98 457q0 70 10.5 161t50.5 172.5t121 140t222 62.5q66 0 123 -12t98 -35l8 6q-20 63 -61 125t-88 111l-205 -80q-25 -10 -37 16l-16 43q-8 16 -3 23.5t17 11.5l160 62q-43 35 -90.5 62.5t-100.5 55.5q-16 10 -27.5 21.5t-0.5 28.5l22 47q6 10 15.5 18t29.5 0 q70 -27 149.5 -72t147.5 -104l162 61q10 4 17 4t16 -16l20 -49q6 -20 -16 -31l-123 -49q55 -66 96 -135.5t68.5 -149t41 -172t17.5 -202.5q0 -92 -11 -195.5t-53 -192t-124 -147.5t-226 -63q-145 0 -230 45t-130 114.5t-57.5 152.5t-12.5 161zM256 492q0 -72 8 -137.5 t35 -117t78 -81t137 -29.5q90 0 144.5 33t83 89t37.5 131t9 157q0 68 -6 130t-22 134q-29 20 -95.5 39.5t-148.5 17.5q-78 0 -129 -28.5t-79.5 -78t-40 -116t-11.5 -143.5z" />
<glyph unicode="&#xf1;" horiz-adv-x="1034" d="M109 35v928q0 35 32 34h84q18 0 27.5 -6t9.5 -28v-74l6 -2q25 16 64 38.5t87 43t101 35t109 14.5q100 0 158.5 -28.5t89 -79t40 -120t9.5 -151.5v-604q0 -35 -37 -35h-86q-35 0 -35 35l2 606q0 70 -8 116t-27.5 72.5t-51.5 37t-79 10.5q-37 0 -86 -14.5t-98 -33t-92 -38 t-66 -31.5v-725q0 -35 -37 -35h-84q-33 0 -32 35zM170 1181.5q0 10.5 4 18.5q35 94 91.5 131t103.5 37q39 0 79.5 -16.5t80.5 -37t77 -36.5t68 -16q35 0 56.5 18t43.5 57q4 8 11.5 14.5t23.5 0.5l43 -15q14 -4 13 -15t-3 -17q-55 -177 -188 -177q-35 0 -76 17.5t-83 37 t-81 37t-69 17.5q-16 0 -45 -12.5t-62 -65.5q-4 -10 -11 -13t-24 5l-41 16q-12 4 -12 14.5z" />
<glyph unicode="&#xf2;" horiz-adv-x="1030" d="M94 516q0 74 12.5 162t54.5 164t124 126t223 50t226 -44t130 -115t58.5 -161t13.5 -182q0 -90 -10.5 -184t-52.5 -172t-128 -127t-237 -49q-147 0 -230 49t-124 126t-50.5 172t-9.5 185zM252 502q0 -94 10 -164t39 -117t78 -70.5t129 -23.5q84 0 136 22.5t82 68.5t40 117 t10 167q0 94 -10 164.5t-40 116.5t-82 70t-136 24q-80 0 -129 -24t-78 -71t-39 -116.5t-10 -163.5zM317.5 1404q-2.5 9 12.5 15l94 41q27 12 35 -6l143 -293q10 -23 -6 -28l-59 -27q-20 -8 -31 6l-182 277q-4 6 -6.5 15z" />
<glyph unicode="&#xf3;" horiz-adv-x="1030" d="M94 516q0 74 12.5 162t54.5 164t124 126t223 50t226 -44t130 -115t58.5 -161t13.5 -182q0 -90 -10.5 -184t-52.5 -172t-128 -127t-237 -49q-147 0 -230 49t-124 126t-50.5 172t-9.5 185zM252 502q0 -94 10 -164t39 -117t78 -70.5t129 -23.5q84 0 136 22.5t82 68.5t40 117 t10 167q0 94 -10 164.5t-40 116.5t-82 70t-136 24q-80 0 -129 -24t-78 -71t-39 -116.5t-10 -163.5zM457 1161l143 293q8 18 35 6l94 -41q14 -6 12 -15t-6 -15l-182 -271q-10 -14 -31 -6l-59 21q-16 6 -6 28z" />
<glyph unicode="&#xf4;" horiz-adv-x="1030" d="M94 516q0 74 12.5 162t54.5 164t124 126t223 50t226 -44t130 -115t58.5 -161t13.5 -182q0 -90 -10.5 -184t-52.5 -172t-128 -127t-237 -49q-147 0 -230 49t-124 126t-50.5 172t-9.5 185zM223 1147q-14 10 0 27l193 243q10 14 21.5 18.5t33.5 4.5h96q29 0 40 -5t20 -16 l188 -243q16 -20 2 -33l-43 -33q-20 -16 -33 -2l-223 219l-215 -215q-10 -12 -18.5 -12t-18.5 10zM252 502q0 -94 10 -164t39 -117t78 -70.5t129 -23.5q84 0 136 22.5t82 68.5t40 117t10 167q0 94 -10 164.5t-40 116.5t-82 70t-136 24q-80 0 -129 -24t-78 -71t-39 -116.5 t-10 -163.5z" />
<glyph unicode="&#xf5;" horiz-adv-x="1030" d="M94 516q0 74 12.5 162t54.5 164t124 126t223 50t226 -44t130 -115t58.5 -161t13.5 -182q0 -90 -10.5 -184t-52.5 -172t-128 -127t-237 -49q-147 0 -230 49t-124 126t-50.5 172t-9.5 185zM188.5 1194q-0.5 10 4.5 18q35 94 91 131t103 37q39 0 80 -16t81 -36.5t77 -37 t67 -16.5q35 0 56.5 18.5t44.5 57.5q4 8 11 14t23 0l43 -14q14 -4 13.5 -15.5t-2.5 -17.5q-56 -176 -189 -176q-35 0 -76 17.5t-82.5 36.5t-80.5 36.5t-70 17.5q-16 0 -45 -12t-62 -66q-4 -10 -11 -13t-23 5l-41 17q-12 4 -12.5 14zM252 502q0 -94 10 -164t39 -117t78 -70.5 t129 -23.5q84 0 136 22.5t82 68.5t40 117t10 167q0 94 -10 164.5t-40 116.5t-82 70t-136 24q-80 0 -129 -24t-78 -71t-39 -116.5t-10 -163.5z" />
<glyph unicode="&#xf6;" horiz-adv-x="1030" d="M94 516q0 74 12.5 162t54.5 164t124 126t223 50t226 -44t130 -115t58.5 -161t13.5 -182q0 -90 -10.5 -184t-52.5 -172t-128 -127t-237 -49q-147 0 -230 49t-124 126t-50.5 172t-9.5 185zM246 1249q0 35 16.5 59.5t69.5 24.5t68.5 -23.5t15.5 -60.5t-15.5 -63.5 t-68.5 -26.5q-57 0 -71.5 27.5t-14.5 62.5zM252 502q0 -94 10 -164t39 -117t78 -70.5t129 -23.5q84 0 136 22.5t82 68.5t40 117t10 167q0 94 -10 164.5t-40 116.5t-82 70t-136 24q-80 0 -129 -24t-78 -71t-39 -116.5t-10 -163.5zM623 1249q0 35 16 59.5t68 24.5 q53 0 69.5 -23.5t16.5 -60.5t-16.5 -63.5t-69.5 -26.5q-55 0 -69.5 27.5t-14.5 62.5z" />
<glyph unicode="&#xf7;" d="M170 631v74q0 27 29 26h741q29 0 29 -26v-74q0 -25 -29 -25h-741q-12 0 -20.5 4t-8.5 21zM473 358q0 41 17.5 68t74.5 27q59 0 76.5 -26t17.5 -69q0 -41 -17 -69.5t-77 -28.5q-61 0 -76.5 29.5t-15.5 68.5zM473 967q0 41 17.5 66.5t74.5 25.5q59 0 76.5 -25.5t17.5 -66.5 t-17 -70t-77 -29q-61 0 -76.5 29t-15.5 70z" />
<glyph unicode="&#xf8;" horiz-adv-x="1030" d="M94 516q0 74 12.5 162t54.5 164t124 126t223 50q96 0 163.5 -20.5t114.5 -55.5l62 84q6 10 15 17.5t20 -1.5l45 -32q20 -14 4 -35l-76 -105q49 -72 64.5 -165t15.5 -189q0 -90 -10.5 -184t-52.5 -172t-128 -127t-237 -49q-84 0 -145.5 16t-106.5 45l-47 -63 q-6 -10 -13.5 -17.5t-21.5 2.5l-45 31q-12 10 -11 17.5t9 17.5l57 78q-31 39 -49 88t-27.5 101t-11.5 107.5t-2 108.5zM252 502q0 -80 7 -142.5t26 -109.5l411 569q-31 29 -77 43.5t-111 14.5q-80 0 -129 -24t-78 -71t-39 -116.5t-10 -163.5zM346 170q55 -43 162 -43 q84 0 136 22.5t82 68.5t40 117t10 167q0 70 -5 125t-19 100z" />
<glyph unicode="&#xf9;" horiz-adv-x="1048" d="M115 358v605q0 35 35 34h88q33 0 32 -34v-607q0 -72 8.5 -116.5t28 -71.5t52 -37t79.5 -10q37 0 86 14.5t98.5 32.5t92.5 38.5t67 33.5v723q0 35 35 34h84q35 0 35 -34v-928q0 -35 -35 -35h-84q-37 0 -37 35v71l-4 5q-25 -16 -64.5 -39t-86.5 -43.5t-100.5 -34.5 t-108.5 -14q-100 0 -159.5 28.5t-91.5 78.5t-41 119.5t-9 151.5zM336 1404q-2 9 12 15l94 41q27 12 35 -6l144 -293q10 -23 -7 -28l-59 -27q-20 -8 -31 6l-182 277q-4 6 -6 15z" />
<glyph unicode="&#xfa;" horiz-adv-x="1048" d="M115 358v605q0 35 35 34h88q33 0 32 -34v-607q0 -72 8.5 -116.5t28 -71.5t52 -37t79.5 -10q37 0 86 14.5t98.5 32.5t92.5 38.5t67 33.5v723q0 35 35 34h84q35 0 35 -34v-928q0 -35 -35 -35h-84q-37 0 -37 35v71l-4 5q-25 -16 -64.5 -39t-86.5 -43.5t-100.5 -34.5 t-108.5 -14q-100 0 -159.5 28.5t-91.5 78.5t-41 119.5t-9 151.5zM481 1161l144 293q8 18 34 6l95 -41q14 -6 12 -15t-6 -15l-182 -271q-10 -14 -31 -6l-60 21q-16 6 -6 28z" />
<glyph unicode="&#xfb;" horiz-adv-x="1048" d="M115 358v605q0 35 35 34h88q33 0 32 -34v-607q0 -72 8.5 -116.5t28 -71.5t52 -37t79.5 -10q37 0 86 14.5t98.5 32.5t92.5 38.5t67 33.5v723q0 35 35 34h84q35 0 35 -34v-928q0 -35 -35 -35h-84q-37 0 -37 35v71l-4 5q-25 -16 -64.5 -39t-86.5 -43.5t-100.5 -34.5 t-108.5 -14q-100 0 -159.5 28.5t-91.5 78.5t-41 119.5t-9 151.5zM231 1147q-14 10 0 27l193 243q10 14 21.5 18.5t33.5 4.5h96q29 0 40.5 -5t19.5 -16l188 -243q16 -20 2 -33l-43 -33q-20 -16 -32 -2l-224 219l-215 -215q-10 -12 -18 -12t-19 10z" />
<glyph unicode="&#xfc;" horiz-adv-x="1048" d="M115 358v605q0 35 35 34h88q33 0 32 -34v-607q0 -72 8.5 -116.5t28 -71.5t52 -37t79.5 -10q37 0 86 14.5t98.5 32.5t92.5 38.5t67 33.5v723q0 35 35 34h84q35 0 35 -34v-928q0 -35 -35 -35h-84q-37 0 -37 35v71l-4 5q-25 -16 -64.5 -39t-86.5 -43.5t-100.5 -34.5 t-108.5 -14q-100 0 -159.5 28.5t-91.5 78.5t-41 119.5t-9 151.5zM268 1249q0 35 16.5 59.5t69.5 24.5t68.5 -23.5t15.5 -60.5t-15 -63.5t-69 -26.5q-57 0 -71.5 27.5t-14.5 62.5zM645 1249q0 35 16.5 59.5t67.5 24.5q53 0 69.5 -23.5t16.5 -60.5t-16.5 -63.5t-69.5 -26.5 q-55 0 -69.5 27.5t-14.5 62.5z" />
<glyph unicode="&#xfd;" horiz-adv-x="954" d="M50 987q3 10 18 10h108q16 0 22.5 -7t10.5 -21l168 -469l110 -314q4 12 23.5 64.5t40.5 111.5q23 68 51 152l156 457q8 27 33 26h110q25 0 14 -30l-469 -1299q-4 -14 -12 -21t-28 -7h-95q-29 0 -18 32l119 328l-361 965q-4 12 -1 22zM424 1161l143 293q8 18 35 6l94 -41 q14 -6 12.5 -15t-6.5 -15l-182 -271q-10 -14 -31 -6l-59 21q-16 6 -6 28z" />
<glyph unicode="&#xfe;" horiz-adv-x="1034" d="M127 -322v1645q0 35 35 35h84q35 0 35 -35v-434l6 -4q23 14 60.5 36.5t84.5 43t99.5 36t103.5 15.5q96 0 160.5 -34t102.5 -98.5t54.5 -158.5t16.5 -217q0 -127 -18.5 -225.5t-64.5 -165t-123 -101t-196 -34.5q-57 0 -128.5 12t-153.5 45l-2 -2v-359q0 -20 -7.5 -29 t-29.5 -9h-84q-23 0 -29 8t-6 30zM283 168q86 -25 157.5 -35t137.5 -10t109.5 19.5t70 65.5t38 120.5t11.5 185.5q0 117 -11.5 187.5t-35 109.5t-58 51t-81.5 12q-37 0 -85.5 -12t-95.5 -30.5t-89 -39t-68 -34.5v-590z" />
<glyph unicode="&#xff;" horiz-adv-x="954" d="M50 987q3 10 18 10h108q16 0 22.5 -7t10.5 -21l168 -469l110 -314q4 12 23.5 64.5t40.5 111.5q23 68 51 152l156 457q8 27 33 26h110q25 0 14 -30l-469 -1299q-4 -14 -12 -21t-28 -7h-95q-29 0 -18 32l119 328l-361 965q-4 12 -1 22zM215 1249q0 35 16.5 59.5t69.5 24.5 t68.5 -23.5t15.5 -60.5t-15.5 -63.5t-68.5 -26.5q-57 0 -71.5 27.5t-14.5 62.5zM592 1249q0 35 16.5 59.5t67.5 24.5q53 0 69.5 -23.5t16.5 -60.5t-16.5 -63.5t-69.5 -26.5q-55 0 -69.5 27.5t-14.5 62.5z" />
<glyph unicode="&#x152;" horiz-adv-x="1607" d="M86 698q0 63 6 138t24.5 150t53.5 145.5t93.5 124t142 86t200.5 32.5q47 0 87 -4t75 -12h700q35 0 35 -33v-80q0 -35 -37 -35l-581 2v-434h522q35 0 35 -33v-79q0 -33 -35 -33h-522v-486l598 -2q33 0 33 -34v-78q0 -20 -8.5 -26.5t-26.5 -6.5h-705q-78 -18 -170 -18 q-119 0 -205 30.5t-143 82.5t-91 123t-52.5 151t-23.5 163.5t-5 165.5zM250 678q0 -125 16.5 -226.5t57.5 -174t109.5 -112.5t172.5 -40q70 0 119 14v1082q-27 6 -56.5 10t-62.5 4q-102 0 -170.5 -39t-109.5 -111.5t-58.5 -175t-17.5 -231.5z" />
<glyph unicode="&#x153;" horiz-adv-x="1701" d="M94 516q0 74 12.5 162t54.5 164t124 126t223 50q143 0 228 -45t130 -117q45 63 124 103t208 40q131 0 213 -38.5t128 -102t62.5 -145.5t20.5 -166q4 -49 -13.5 -82t-74.5 -33h-588q2 -94 13.5 -156.5t41 -100.5t78.5 -53.5t125 -15.5q31 0 73 3.5t84 6.5t81 7t67 8 q20 2 31.5 -2t15.5 -25l9 -43q6 -31 -25 -43q-29 -12 -72 -22t-90 -16.5t-95 -10.5t-85 -4q-141 0 -224 42t-126 114q-47 -61 -127 -99t-213 -38q-147 0 -230 49t-124 126t-50.5 172t-9.5 185zM252 502q0 -94 10 -164t39 -117t78 -70.5t129 -23.5q84 0 136 22.5t82 68.5 t40 117t10 167q0 94 -10 164.5t-40 116.5t-82 70t-136 24q-80 0 -129 -24t-78 -71t-39 -116.5t-10 -163.5zM946 559h504q-2 53 -11 107.5t-35 97.5t-76 69.5t-132 26.5q-76 0 -123 -21.5t-73.5 -60.5t-38 -94t-15.5 -125z" />
<glyph unicode="&#x178;" horiz-adv-x="1038" d="M35 1329q-4 10 0 18.5t16 8.5h121q18 0 25.5 -6.5t13.5 -18.5l190 -358l113 -211h12l121 219l191 350q8 14 16 19.5t27 5.5h106q33 0 19 -31l-408 -719v-571q0 -35 -33 -35h-86q-37 0 -37 35v571zM256 1552q0 35 15.5 59.5t68.5 24.5t68.5 -22.5t15.5 -61.5 q0 -37 -15.5 -62.5t-68.5 -25.5q-57 0 -70.5 27t-13.5 61zM608 1552q0 35 15.5 59.5t68.5 24.5t68.5 -22.5t15.5 -61.5q0 -37 -15.5 -62.5t-68.5 -25.5q-57 0 -70.5 27t-13.5 61z" />
<glyph unicode="&#x2c6;" horiz-adv-x="1030" d="M213 1147q-14 10 0 27l193 243q10 14 21 18.5t34 4.5h96q29 0 40 -5t19 -16l189 -243q16 -20 2 -33l-43 -33q-20 -16 -33 -2l-223 219l-215 -215q-10 -12 -18.5 -12t-18.5 10z" />
<glyph unicode="&#x2dc;" horiz-adv-x="1034" d="M164 1181.5q0 10.5 4 18.5q35 94 91 131t103 37q39 0 80 -16.5t81 -37t77 -36.5t68 -16q35 0 56 18t44 57q4 8 11 14.5t24 0.5l43 -15q14 -4 13 -15t-3 -17q-55 -177 -188 -177q-35 0 -76 17.5t-83 37t-81 37t-70 17.5q-16 0 -44.5 -12.5t-61.5 -65.5q-4 -10 -11.5 -13 t-23.5 5l-41 16q-12 4 -12 14.5z" />
<glyph unicode="&#x2000;" horiz-adv-x="891" />
<glyph unicode="&#x2001;" horiz-adv-x="1782" />
<glyph unicode="&#x2002;" horiz-adv-x="891" />
<glyph unicode="&#x2003;" horiz-adv-x="1782" />
<glyph unicode="&#x2004;" horiz-adv-x="594" />
<glyph unicode="&#x2005;" horiz-adv-x="445" />
<glyph unicode="&#x2006;" horiz-adv-x="297" />
<glyph unicode="&#x2007;" horiz-adv-x="297" />
<glyph unicode="&#x2008;" horiz-adv-x="222" />
<glyph unicode="&#x2009;" horiz-adv-x="356" />
<glyph unicode="&#x200a;" horiz-adv-x="99" />
<glyph unicode="&#x2010;" horiz-adv-x="757" d="M72 629v63q0 16 7 21.5t21 5.5h557q14 0 21.5 -5t7.5 -22v-63q0 -25 -29 -25h-557q-29 0 -28 25z" />
<glyph unicode="&#x2011;" horiz-adv-x="757" d="M72 629v63q0 16 7 21.5t21 5.5h557q14 0 21.5 -5t7.5 -22v-63q0 -25 -29 -25h-557q-29 0 -28 25z" />
<glyph unicode="&#x2012;" horiz-adv-x="757" d="M72 629v63q0 16 7 21.5t21 5.5h557q14 0 21.5 -5t7.5 -22v-63q0 -25 -29 -25h-557q-29 0 -28 25z" />
<glyph unicode="&#x2013;" horiz-adv-x="1028" d="M61 489v58q0 31 31 31h844q31 0 31 -31v-58q0 -29 -29 -28h-848q-29 0 -29 28z" />
<glyph unicode="&#x2014;" horiz-adv-x="1662" d="M61 489v58q0 31 31 31h1477q31 0 30 -31v-58q0 -29 -28 -28h-1481q-29 0 -29 28z" />
<glyph unicode="&#x2018;" horiz-adv-x="430" d="M111 1073q0 106 51 188t112 123q6 4 16.5 7.5t14.5 -0.5l29 -29q12 -12 -6 -27q-37 -33 -52.5 -70.5t-15.5 -76.5q0 -35 14.5 -73t36.5 -66q6 -8 6 -18.5t-16 -22.5l-80 -64q-27 -18 -51 4q-31 29 -45 61.5t-14 63.5z" />
<glyph unicode="&#x2019;" horiz-adv-x="430" d="M104 973q-12 12 7 26q37 33 52 71t15 77q0 35 -14 72.5t-37 66.5q-6 8 -6 19.5t16 21.5l80 64q14 10 27.5 8t23.5 -10q31 -29 45.5 -62.5t14.5 -62.5q0 -109 -51.5 -191t-112.5 -123q-6 -4 -16.5 -7t-14.5 1z" />
<glyph unicode="&#x201a;" horiz-adv-x="399" d="M82 -246q-8 10 8 27q37 33 52.5 69.5t15.5 75.5q0 37 -14.5 75t-37.5 65q-6 8 -6 19t15 24l82 61q14 10 27.5 9t23.5 -11q31 -29 45 -62.5t14 -62.5q0 -106 -51 -189t-113 -122q-6 -4 -16 -8.5t-16 2.5z" />
<glyph unicode="&#x201c;" horiz-adv-x="638" d="M86 1073q0 106 51 188t115 123q4 4 14 7.5t17 -0.5l28 -29q8 -12 -8 -27q-37 -33 -52 -70.5t-15 -76.5q0 -35 14 -73t37 -66q6 -8 7 -18.5t-15 -22.5l-82 -64q-14 -10 -26.5 -8t-23.5 12q-33 29 -47 61.5t-14 63.5zM344 1073q0 106 51 188t115 123q4 4 14.5 7.5 t16.5 -0.5l28 -29q8 -12 -8 -27q-37 -33 -52 -70.5t-15 -76.5q0 -35 14 -73t37 -66q6 -8 7 -18.5t-15 -22.5l-82 -64q-14 -10 -26.5 -8t-22.5 12q-33 29 -47.5 61.5t-14.5 63.5z" />
<glyph unicode="&#x201d;" horiz-adv-x="638" d="M86 973q-8 12 8 26q37 33 52.5 71t15.5 77q0 35 -14.5 72.5t-36.5 66.5q-6 8 -6.5 19.5t14.5 21.5l82 64q14 10 27.5 8t23.5 -10q31 -29 45 -62.5t14 -62.5q0 -109 -51 -191t-113 -123q-6 -4 -16 -7t-16 1zM344 973q-8 12 8 26q37 33 52.5 71t15.5 77q0 35 -14.5 72.5 t-36.5 66.5q-6 8 -6.5 19.5t14.5 21.5l82 64q14 10 27.5 8t23.5 -10q31 -29 45 -62.5t14 -62.5q0 -109 -51 -191t-112 -123q-6 -4 -16.5 -7t-16.5 1z" />
<glyph unicode="&#x201e;" horiz-adv-x="638" d="M86 -246q-8 12 8 27q37 33 52.5 70.5t15.5 76.5q0 35 -14.5 73t-36.5 67q-6 8 -6.5 19t14.5 22l82 63q14 10 27.5 8t23.5 -10q31 -29 45 -62.5t14 -62.5q0 -109 -51 -190.5t-113 -122.5q-6 -4 -16 -7.5t-16 1.5zM344 -246q-8 12 8 27q37 33 52.5 70.5t15.5 76.5 q0 35 -14.5 73t-36.5 67q-6 8 -6.5 19t14.5 22l82 63q14 10 27.5 8t23.5 -10q31 -29 45 -62.5t14 -62.5q0 -109 -51 -190.5t-112 -122.5q-6 -4 -16.5 -7.5t-16.5 1.5z" />
<glyph unicode="&#x2022;" horiz-adv-x="579" d="M109 518q0 37 14 71t39.5 59.5t59.5 41t71 15.5t70.5 -15.5t59.5 -41t40 -59.5t14 -71q0 -78 -54 -131t-130 -53t-130 53t-54 131z" />
<glyph unicode="&#x2026;" horiz-adv-x="1337" d="M90 80q0 41 17.5 67.5t76.5 26.5t75.5 -26.5t16.5 -67.5t-16 -69.5t-76 -28.5q-63 0 -78.5 28.5t-15.5 69.5zM573 80q0 41 17.5 67.5t77.5 26.5q59 0 75.5 -26.5t16.5 -67.5t-16.5 -69.5t-75.5 -28.5q-63 0 -79 28.5t-16 69.5zM1057 80q0 41 18.5 67.5t75.5 26.5 q59 0 76.5 -26.5t17.5 -67.5t-17.5 -69.5t-76.5 -28.5q-63 0 -78.5 28.5t-15.5 69.5z" />
<glyph unicode="&#x202f;" horiz-adv-x="356" />
<glyph unicode="&#x2039;" horiz-adv-x="536" d="M73 372.5q-3 14.5 13 33.5l201 253q10 10 20 20.5t31 10.5h106q16 0 17.5 -10t-2.5 -18l-228 -285l238 -289q6 -8 4 -15t-12 -7h-123q-16 0 -27.5 8t-19.5 18l-207 256q-8 10 -11 24.5z" />
<glyph unicode="&#x203a;" horiz-adv-x="536" d="M72 73q-2 7 4 15l237 289l-227 285q-4 8 -3 18t17 10h107q20 0 30.5 -10t20.5 -21l201 -253q16 -18 13 -33t-11 -25l-207 -256q-8 -10 -19.5 -18t-27.5 -8h-123q-10 0 -12 7z" />
<glyph unicode="&#x205f;" horiz-adv-x="445" />
<glyph unicode="&#x20ac;" d="M43 553l16 76q2 6 6.5 10t16.5 4h94v21v34.5t2 34.5h-117q-10 0 -15 3t-3 16l16 75q2 8 6.5 12.5t16.5 4.5h102q12 106 44 202.5t92.5 169t154.5 114.5t234 42q31 0 74.5 -2t93 -8t99.5 -16.5t91 -26.5q23 -10 27 -20.5t0 -24.5l-13 -57q-4 -10 -11 -18.5t-28 -4.5 q-68 10 -154.5 19.5t-178.5 9.5q-94 0 -159 -29t-106 -80t-62.5 -120.5t-29.5 -149.5h574q16 0 20 -4t2 -19l-16 -69q-4 -18 -21 -19h-567v-69v-21h553q27 0 21 -25l-15 -69q-4 -16 -22 -17h-533q8 -82 28.5 -153.5t60.5 -125.5t104.5 -85t158.5 -31t174 6.5t166 22.5 q27 4 34 -5t7 -20v-61q0 -16 -4 -26.5t-24 -18.5q-37 -16 -85 -25.5t-97.5 -15.5t-94.5 -8t-76 -2q-141 0 -237 42t-156.5 115.5t-89.5 174t-37 216.5h-121q-18 0 -16 21z" />
<glyph unicode="&#x2122;" horiz-adv-x="1361" d="M61 1280v49q0 27 29 27h449q29 0 28 -27v-49q0 -31 -30 -31h-166v-495q0 -29 -29 -29h-53q-31 0 -31 29v495h-168q-29 0 -29 31zM610 754v581q0 23 27 23h61q16 0 23.5 -7.5t13.5 -17.5l203 -377h2l8 16q8 17 22.5 43.5t33 60.5t36.5 69q45 82 101 188q6 10 13 17.5 t24 7.5h59q25 0 25 -23v-581q0 -29 -23 -29h-63q-6 0 -15.5 5t-9.5 24l2 399l-4 2l-80 -158l-84 -155q-12 -23 -33 -23h-34q-12 0 -19.5 5t-13.5 16l-80 153l-82 160h-2l2 -399q0 -31 -29 -31h-53q-16 0 -23.5 6t-7.5 25z" />
<glyph unicode="&#x25fc;" horiz-adv-x="993" d="M0 0v993h993v-993h-993z" />
</font>
</defs>
</svg>
